<?xml version="1.0" standalone="no"?>
<!DOCTYPE svg PUBLIC "-//W3C//DTD SVG 1.1//EN" "http://www.w3.org/Graphics/SVG/1.1/DTD/svg11.dtd" >
<svg xmlns="http://www.w3.org/2000/svg">
<metadata></metadata>
<defs>
<font id="arimoitalic" horiz-adv-x="1139" >
<font-face units-per-em="2048" ascent="1638" descent="-410" />
<missing-glyph horiz-adv-x="569" />
<glyph horiz-adv-x="0" />
<glyph unicode="&#xd;" horiz-adv-x="569" />
<glyph unicode=" "  horiz-adv-x="569" />
<glyph unicode="&#x09;" horiz-adv-x="569" />
<glyph unicode="&#xa0;" horiz-adv-x="569" />
<glyph unicode="!" horiz-adv-x="569" d="M77 0l40 201h194l-40 -201h-194zM181 397l172 1012h196l-220 -1012h-148z" />
<glyph unicode="&#x22;" horiz-adv-x="727" d="M187 966l63 443h184l-106 -443h-141zM555 966l64 443h184l-106 -443h-142z" />
<glyph unicode="#" d="M39 408v108h225l78 369h-252v108h274l89 408h110l-88 -408h363l88 408h110l-88 -408h211v-108h-233l-78 -369h260v-108h-283l-88 -408h-110l86 408h-363l-84 -408h-110l84 408h-201zM375 516h362l78 369h-360z" />
<glyph unicode="$" d="M-12 376l163 37q25 -115 97.5 -174t206.5 -69l96 493q-149 41 -221.5 86.5t-110.5 110t-38 158.5q0 112 65 194.5t181.5 127t263.5 45.5l25 131h114l-27 -137q156 -19 248.5 -94t118.5 -198l-156 -45q-45 167 -238 194l-86 -441q196 -53 289 -145t93 -225 q0 -185 -137.5 -290.5t-394.5 -113.5l-31 -161h-114l32 163q-201 14 -306.5 104t-132.5 249zM363 1018q0 -67 45 -110t174 -83l81 415q-145 -5 -222.5 -62t-77.5 -160zM569 169q318 17 318 244q0 78 -50.5 128.5t-177.5 90.5z" />
<glyph unicode="%" horiz-adv-x="1821" d="M146 841q0 147 46.5 289.5t134.5 216.5t218 74q125 0 192 -79t67 -229q0 -106 -27 -221.5t-82 -199t-127.5 -126t-161.5 -42.5q-124 0 -192 82.5t-68 234.5zM260 0l1186 1409h167l-1188 -1409h-165zM284 827q0 -190 126 -190q85 0 140 67t85 199t30 228q0 182 -121 182 q-67 0 -110 -31t-75 -97.5t-53.5 -173.5t-21.5 -184zM1075 305q0 147 46.5 289.5t134.5 216.5t218 74q125 0 192 -79t67 -229q0 -106 -27 -221.5t-82 -199t-127.5 -126t-161.5 -42.5q-124 0 -192 82.5t-68 234.5zM1213 291q0 -190 126 -190q85 0 140 67t85 199t30 228 q0 182 -121 182q-67 0 -110 -31t-75 -97.5t-53.5 -173.5t-21.5 -184z" />
<glyph unicode="&#x26;" horiz-adv-x="1366" d="M33 351q0 157 93 259.5t336 195.5q-28 119 -28 230q0 173 108.5 277t290.5 104q138 0 224.5 -72t86.5 -190q0 -116 -81.5 -202t-291.5 -169l-125 -50q76 -224 218 -419q60 68 117 162t135 262l132 -55q-139 -315 -291 -476q40 -38 90.5 -58.5t96.5 -20.5q60 0 112 16 l-13 -135q-60 -22 -125 -22q-149 0 -271 122q-178 -130 -407 -130q-189 0 -298 100.5t-109 270.5zM203 354q0 -111 68.5 -177t180.5 -66q163 0 301 101q-73 90 -140 212.5t-111 250.5q-168 -66 -233.5 -138.5t-65.5 -182.5zM592 1041q0 -78 19 -178q79 29 148 55t120.5 58 t81 73t29.5 99q0 65 -45.5 106.5t-118.5 41.5q-112 0 -173 -67.5t-61 -187.5z" />
<glyph unicode="'" horiz-adv-x="391" d="M202 966l63 443h184l-106 -443h-141z" />
<glyph unicode="(" horiz-adv-x="682" d="M96 278q0 372 150 679t435 527h174q-578 -509 -578 -1222q0 -389 207 -686h-174q-214 296 -214 702z" />
<glyph unicode=")" horiz-adv-x="682" d="M-199 -424q578 509 578 1222q0 389 -207 686h174q214 -296 214 -702q0 -372 -150 -679t-435 -527h-174z" />
<glyph unicode="*" horiz-adv-x="797" d="M120 1085l45 134l267 -107l-12 297h136l-13 -295l264 103l45 -132l-282 -73l185 -250l-119 -72l-150 258l-156 -256l-119 72l189 248z" />
<glyph unicode="+" horiz-adv-x="1196" d="M130 608v146h424v428h147v-428h424v-146h-424v-428h-147v428h-424z" />
<glyph unicode="," horiz-adv-x="569" d="M37 -262q120 137 145 262h-88l42 219h195l-32 -168q-18 -95 -51 -170t-88 -143h-123z" />
<glyph unicode="-" horiz-adv-x="682" d="M105 464l31 160h500l-31 -160h-500z" />
<glyph unicode="." horiz-adv-x="569" d="M80 0l43 219h195l-43 -219h-195z" />
<glyph unicode="/" horiz-adv-x="569" d="M-116 -20l703 1504h158l-700 -1504h-161z" />
<glyph unicode="0" d="M89 465q0 180 44.5 366t124 322t197 206.5t277.5 70.5q183 0 286.5 -123t103.5 -343q0 -256 -78 -495.5t-221 -364t-347 -124.5q-181 0 -284 129t-103 356zM264 438q0 -155 59.5 -233t167.5 -78q151 0 246.5 106t152.5 329.5t57 410.5q0 155 -59.5 233t-167.5 78 q-151 0 -246.5 -106t-152.5 -329.5t-57 -410.5z" />
<glyph unicode="1" d="M53 0l30 153h359l208 1070l-361 -223l35 180l377 229h166l-244 -1256h343l-30 -153h-883z" />
<glyph unicode="2" d="M-12 0l24 127q55 93 123 166t142 132.5t150.5 108.5t148 94.5t134 90.5t109.5 96t74 111.5t27 136.5q0 98 -62.5 158.5t-168.5 60.5q-109 0 -190 -59.5t-118 -178.5l-170 37q54 170 178 259.5t311 89.5q182 0 295.5 -98t113.5 -254q0 -106 -51 -203t-153.5 -186 t-308.5 -219q-147 -93 -237.5 -169t-136.5 -148h727l-29 -153h-932z" />
<glyph unicode="3" d="M48 338l164 48q30 -116 118 -186.5t211 -70.5q141 0 220.5 74.5t79.5 200.5q0 112 -75 173.5t-204 61.5h-124l30 156h98q183 0 273.5 73t90.5 213q0 93 -60.5 147t-161.5 54q-119 0 -204.5 -61t-119.5 -172l-178 14q58 186 191.5 276.5t320.5 90.5t295 -92t108 -252 q0 -153 -96.5 -249.5t-271.5 -119.5l-1 -4q131 -26 204 -104.5t73 -201.5q0 -125 -60.5 -222.5t-175 -151t-267.5 -53.5q-128 0 -226 44t-162.5 124.5t-89.5 189.5z" />
<glyph unicode="4" d="M13 319l27 140l819 950h199l-184 -948h188l-28 -142h-188l-62 -319h-180l62 319h-653zM227 461h467l132 696z" />
<glyph unicode="5" d="M46 309l163 43q31 -114 110 -169.5t196 -55.5q166 0 256 93.5t90 265.5q0 122 -69 194t-185 72q-163 0 -282 -101h-176l194 758h801l-29 -153h-637l-114 -447q50 42 122 66t155 24q184 0 297 -106.5t113 -286.5q0 -246 -144 -386t-402 -140q-371 0 -459 329z" />
<glyph unicode="6" d="M115 464q0 241 83.5 476.5t228.5 362.5t334 127q150 0 246.5 -71.5t131.5 -207.5l-166 -36q-25 81 -82 125t-138 44q-164 0 -279 -146t-167 -412q60 90 151.5 137.5t204.5 47.5q172 0 278 -105t106 -273q0 -152 -66.5 -280.5t-184 -200.5t-262.5 -72q-193 0 -306 134 t-113 350zM288 421q0 -131 68 -213.5t182 -82.5q139 0 231 112.5t92 284.5q0 115 -59.5 182.5t-171.5 67.5q-93 0 -171.5 -42.5t-124.5 -120.5t-46 -188z" />
<glyph unicode="7" d="M212 1256l29 153h961l-28 -146q-223 -262 -308 -372t-153 -214t-121 -210.5t-92.5 -222.5t-64.5 -244h-188q41 204 124.5 388t208 365t406.5 503h-774z" />
<glyph unicode="8" d="M54 360q0 150 91 253.5t266 142.5v4q-91 38 -141 113.5t-50 178.5q0 177 130 277t354 100q191 0 307 -91.5t116 -246.5q0 -140 -86.5 -238t-233.5 -120l-1 -4q110 -33 168.5 -110t58.5 -187q0 -208 -142 -330t-391 -122q-213 0 -329.5 101t-116.5 279zM239 356 q0 -112 74 -175.5t206 -63.5q148 0 239.5 86t91.5 233q0 111 -76.5 173.5t-207.5 62.5q-156 0 -241.5 -83t-85.5 -233zM400 1033q0 -103 68.5 -162.5t189.5 -59.5q134 0 208.5 71.5t74.5 204.5q0 98 -65.5 152.5t-192.5 54.5q-133 0 -208 -67t-75 -194z" />
<glyph unicode="9" d="M70 257l158 45q24 -85 83 -131t150 -46q158 0 269.5 144.5t167.5 414.5q-134 -203 -339 -203q-118 0 -208 51.5t-139 143.5t-49 205q0 152 66 278.5t185.5 198.5t267.5 72q196 0 305.5 -127t109.5 -346q0 -155 -37.5 -323.5t-100.5 -293.5t-143 -205.5t-173 -117.5 t-190 -37q-308 0 -383 277zM346 879q0 -122 63 -189t171 -67q94 0 176.5 51t125.5 136t43 207q0 121 -69 194t-178 73q-148 0 -240 -108t-92 -297z" />
<glyph unicode=":" horiz-adv-x="569" d="M81 0l41 207h195l-41 -207h-195zM251 875l41 207h195l-41 -207h-195z" />
<glyph unicode=";" horiz-adv-x="569" d="M38 -262q120 137 145 262h-88l40 207h195l-30 -156q-18 -95 -51 -170t-88 -143h-123zM265 875l40 207h195l-40 -207h-195z" />
<glyph unicode="&#x3c;" horiz-adv-x="1196" d="M131 571v205l995 418v-154l-858 -366l858 -367v-153z" />
<glyph unicode="=" horiz-adv-x="1196" d="M130 344v148h995v-148h-995zM130 856v148h995v-148h-995z" />
<glyph unicode="&#x3e;" horiz-adv-x="1196" d="M131 154v153l858 367l-858 366v154l995 -418v-205z" />
<glyph unicode="?" d="M159 1048q63 195 199.5 288.5t342.5 93.5q197 0 314.5 -100t117.5 -257q0 -97 -30.5 -165.5t-79 -119t-109 -87.5t-120.5 -72q-127 -72 -176 -128t-63 -124h-175q13 80 48 139.5t87.5 106.5t186.5 123q106 60 152 101.5t69 91.5t23 113q0 98 -73 158t-189 60 q-140 0 -231 -70t-129 -192zM299 0l39 201h195l-39 -201h-195z" />
<glyph unicode="@" horiz-adv-x="2079" d="M194 491q0 280 124.5 509t345.5 356.5t495 127.5q241 0 416 -90.5t267.5 -255.5t92.5 -383q0 -186 -57.5 -336.5t-160 -232.5t-229.5 -82q-101 0 -154 45.5t-53 130.5l3 70h-6q-66 -123 -163.5 -184.5t-210.5 -61.5q-157 0 -243.5 102t-86.5 283q0 164 64.5 305 t180.5 224t257 83q219 0 301 -182h6l39 160h156l-116 -506q-37 -164 -37 -253q0 -94 81 -94q80 0 147.5 69t106.5 190t39 268q0 179 -77 317.5t-222 213t-339 74.5q-242 0 -428 -107t-292 -308.5t-106 -451.5q0 -193 78.5 -340.5t227 -226.5t346.5 -79q313 0 603 162 l55 -112q-145 -87 -314.5 -132.5t-343.5 -45.5q-240 0 -419.5 95t-276.5 272t-97 407zM739 491q0 -120 47.5 -188t146.5 -68q80 0 153 44t128 121.5t85 176t30 170.5q0 102 -66 164.5t-176 62.5q-101 0 -179.5 -63.5t-123.5 -177.5t-45 -242z" />
<glyph unicode="A" horiz-adv-x="1366" d="M-101 0l848 1409h217l292 -1409h-195l-75 412h-639l-240 -412h-208zM431 561h527l-102 553l-26 151q-13 -26 -37 -69t-362 -635z" />
<glyph unicode="B" horiz-adv-x="1366" d="M63 0l273 1409h510q209 0 329.5 -86.5t120.5 -235.5q0 -285 -339 -344q138 -23 214 -104.5t76 -199.5q0 -213 -156 -326t-433 -113h-595zM283 153h368q210 0 307.5 73.5t97.5 215.5q0 107 -79.5 163t-228.5 56h-366zM411 810h331q355 0 355 258q0 188 -268 188h-331z" />
<glyph unicode="C" horiz-adv-x="1479" d="M113 569q0 246 105 445t291.5 307.5t416.5 108.5q217 0 366.5 -90.5t197.5 -254.5l-180 -55q-36 112 -139.5 178t-254.5 66q-184 0 -324 -88.5t-215 -249t-75 -370.5q0 -200 109 -315.5t302 -115.5q148 0 276 73.5t226 217.5l143 -89q-126 -188 -286 -272.5t-372 -84.5 q-181 0 -314.5 72.5t-203 206.5t-69.5 310z" />
<glyph unicode="D" horiz-adv-x="1479" d="M63 0l273 1409h408q312 0 490.5 -164.5t178.5 -453.5q0 -236 -103 -413t-296.5 -277.5t-438.5 -100.5h-512zM283 153h284q195 0 344 77.5t228.5 223t79.5 339.5q0 219 -126 341t-353 122h-242z" />
<glyph unicode="E" horiz-adv-x="1366" d="M63 0l273 1409h1049l-30 -156h-858l-88 -452h798l-30 -154h-798l-95 -491h899l-30 -156h-1090z" />
<glyph unicode="F" horiz-adv-x="1251" d="M63 0l273 1409h1011l-30 -156h-820l-102 -524h796l-31 -158h-796l-110 -571h-191z" />
<glyph unicode="G" horiz-adv-x="1593" d="M101 573q0 249 105 445.5t297.5 304t440.5 107.5q222 0 364 -84t197 -248l-193 -54q-37 115 -134 172.5t-246 57.5q-192 0 -336.5 -86t-221.5 -244.5t-77 -366.5q0 -211 118 -326.5t333 -115.5q138 0 264 39.5t219 116.5l51 254h-421l32 160h597l-100 -495 q-140 -120 -298.5 -175t-349.5 -55q-305 0 -473 156t-168 437z" />
<glyph unicode="H" horiz-adv-x="1479" d="M63 0l274 1409h191l-116 -596h767l116 596h186l-274 -1409h-186l127 653h-767l-127 -653h-191z" />
<glyph unicode="I" horiz-adv-x="569" d="M81 0l274 1409h191l-274 -1409h-191z" />
<glyph unicode="J" horiz-adv-x="1024" d="M-5 343l168 33q23 -117 79 -179t156 -62q105 0 170 72.5t95 232.5l157 813h-291l30 156h481l-193 -986q-43 -224 -157 -333.5t-309 -109.5q-159 0 -259.5 93t-126.5 270z" />
<glyph unicode="K" horiz-adv-x="1366" d="M63 0l273 1409h191l-136 -691l140 129l665 562h245l-750 -630l557 -779h-226l-472 674l-190 -129l-106 -545h-191z" />
<glyph unicode="L" d="M63 0l273 1409h191l-243 -1253h712l-30 -156h-903z" />
<glyph unicode="M" horiz-adv-x="1706" d="M63 0l273 1409h236l189 -977q8 -39 32 -205l104 213l553 969h256l-273 -1409h-172l180 928q36 185 65 300q-91 -189 -145 -280l-548 -948h-124l-185 948q-6 29 -41 280q-9 -60 -30 -187.5t-200 -1040.5h-170z" />
<glyph unicode="N" horiz-adv-x="1479" d="M63 0l273 1409h212l534 -1215q26 189 45 284l181 931h172l-273 -1409h-220l-531 1210q-22 -171 -42 -267l-181 -943h-170z" />
<glyph unicode="O" horiz-adv-x="1593" d="M111 573q0 239 105.5 439.5t294.5 309t427 108.5q277 0 437.5 -157t160.5 -422q-5 -268 -112 -463.5t-293 -301.5t-422 -106q-284 0 -441 157.5t-157 435.5zM302 563q0 -209 106.5 -318.5t309.5 -109.5q197 0 335.5 86.5t215 259.5t76.5 366q0 207 -108.5 318t-307.5 111 q-200 0 -339.5 -89t-213.5 -266t-74 -358z" />
<glyph unicode="P" horiz-adv-x="1366" d="M63 0l273 1409h516q231 0 366 -104t135 -285q0 -220 -152.5 -345.5t-416.5 -125.5h-424l-106 -549h-191zM390 700h387q382 0 382 311q0 119 -79 182t-233 63h-349z" />
<glyph unicode="Q" horiz-adv-x="1593" d="M101 573q0 239 105.5 439.5t294.5 309t427 108.5q277 0 437.5 -157t160.5 -422q-5 -244 -94 -428t-246.5 -296t-363.5 -139q17 -121 67 -176.5t149 -55.5q58 0 123 13l-18 -134q-76 -22 -169 -22q-151 0 -232 86t-104 284q-253 17 -395 172t-142 418zM292 563 q0 -209 106.5 -318.5t309.5 -109.5q197 0 335.5 86.5t215 259.5t76.5 366q0 207 -108.5 318t-307.5 111q-200 0 -339.5 -89t-213.5 -266t-74 -358z" />
<glyph unicode="R" horiz-adv-x="1479" d="M63 0l273 1409h612q214 0 341 -102t127 -268q0 -188 -108 -298t-319 -139l268 -602h-206l-243 585h-441l-113 -585h-191zM397 736h460q181 0 273 75.5t92 212.5q0 112 -74.5 172t-222.5 60h-427z" />
<glyph unicode="S" horiz-adv-x="1366" d="M58 338l177 37q27 -129 120 -187t275 -58q219 0 320 65.5t101 200.5q0 67 -29 107.5t-99 73t-241 80.5q-171 47 -255.5 96.5t-128 119.5t-43.5 168q0 182 153.5 285.5t415.5 103.5q220 0 353 -76t167 -222l-173 -51q-33 105 -118.5 155t-229.5 50q-376 0 -376 -236 q0 -60 25.5 -98t84 -66.5t232.5 -75.5q195 -54 280.5 -104t131 -121.5t45.5 -176.5q0 -206 -155 -317t-475 -111q-249 0 -386.5 88.5t-171.5 269.5z" />
<glyph unicode="T" horiz-adv-x="1251" d="M184 1253l30 156h1158l-30 -156h-484l-244 -1253h-190l244 1253h-484z" />
<glyph unicode="U" horiz-adv-x="1479" d="M153 431q0 44 7.5 105.5t15.5 98.5l150 774h191l-162 -843q-17 -87 -17 -143q0 -136 87.5 -212t244.5 -76q384 0 461 406l168 868h190l-170 -879q-54 -273 -222 -411.5t-443 -138.5q-233 0 -367 120.5t-134 330.5z" />
<glyph unicode="V" horiz-adv-x="1366" d="M177 1409h194l198 -992l35 -249l133 249l580 992h208l-848 -1409h-198z" />
<glyph unicode="W" horiz-adv-x="1933" d="M177 1409h197l79 -895q12 -155 16 -346q79 188 130.5 302t443.5 939h183l75 -877q14 -154 17 -364l16 35q48 115 78 184t481 1022h201l-688 -1409h-223l-71 895q-14 275 -16 324q-76 -199 -135 -324l-419 -895h-223z" />
<glyph unicode="X" horiz-adv-x="1366" d="M-39 0l654 746l-340 663h199l270 -551l475 551h211l-600 -676l368 -733h-199l-303 606l-524 -606h-211z" />
<glyph unicode="Y" horiz-adv-x="1366" d="M213 1409h196l306 -674l560 674h214l-704 -825l-113 -584h-190l115 584z" />
<glyph unicode="Z" horiz-adv-x="1251" d="M-40 0l27 143l1054 1110h-765l30 156h1002l-27 -139l-1054 -1114h885l-30 -156h-1122z" />
<glyph unicode="[" horiz-adv-x="569" d="M-39 -425l370 1909h407l-25 -129h-233l-321 -1651h233l-25 -129h-406z" />
<glyph unicode="\" horiz-adv-x="569" d="M146 1484h148l178 -1504h-152z" />
<glyph unicode="]" horiz-adv-x="569" d="M-169 -425l25 129h232l321 1651h-233l25 129h407l-371 -1909h-406z" />
<glyph unicode="^" horiz-adv-x="961" d="M40 673l368 736h203l370 -736h-164l-309 633l-306 -633h-162z" />
<glyph unicode="_" d="M-160 -174h1178v-76h-1178v76z" />
<glyph unicode="`" horiz-adv-x="682" d="M130 1479l5 29h207l161 -287l-3 -20h-88z" />
<glyph unicode="a" d="M46 278q0 185 132.5 280t422.5 99l232 3q19 98 19 127q0 91 -53 134.5t-147 43.5q-119 0 -180 -42.5t-88 -129.5l-178 29q45 147 156.5 213.5t299.5 66.5q171 0 270.5 -80t99.5 -215q0 -64 -19 -157l-74 -378q-11 -48 -11 -88q0 -73 81 -73q27 0 60 7l-14 -112 q-66 -16 -128 -16q-93 0 -135.5 38.5t-42.5 114.5l5 64h-6q-83 -126 -172 -176.5t-215 -50.5q-140 0 -227.5 84t-87.5 214zM237 286q0 -75 48.5 -122t125.5 -47q97 0 175 41.5t129 108.5t67 144l27 125l-199 -4q-119 -3 -187 -21.5t-105.5 -47t-59 -72t-21.5 -105.5z" />
<glyph unicode="b" d="M29 0q5 15 19.5 82t29.5 141l245 1261h180l-83 -423q-8 -46 -34 -140h4q73 95 154 138t200 43q157 0 244.5 -94.5t87.5 -259.5q0 -203 -61.5 -393.5t-173 -282.5t-284.5 -92q-123 0 -200 52t-109 146h-3q-7 -37 -24 -106t-19 -72h-173zM298 377q0 -125 63.5 -194.5 t176.5 -69.5q124 0 196 75.5t113 240t41 287.5t-47 185t-149 62q-99 0 -169.5 -40.5t-119.5 -122t-77 -204t-28 -219.5z" />
<glyph unicode="c" horiz-adv-x="1024" d="M67 395q0 200 72.5 372t192 253.5t293.5 81.5q169 0 267.5 -85t108.5 -233l-177 -25q-6 97 -60 149.5t-145 52.5q-126 0 -204 -67.5t-121 -214.5t-43 -290q0 -267 218 -267q205 0 289 230l156 -49q-121 -323 -449 -323q-192 0 -295 109t-103 306z" />
<glyph unicode="d" d="M69 333q0 203 61.5 393.5t173 282.5t284.5 92q123 0 200.5 -52t109.5 -146h5l28 162l82 419h180l-245 -1261q-29 -141 -38 -223h-172q0 51 21 160h-5q-73 -95 -154 -138t-199 -43q-157 0 -244.5 94.5t-87.5 259.5zM257 365q0 -123 47 -185t149 -62q99 0 169.5 40.5 t119.5 122t77 204t28 219.5q0 125 -63.5 194.5t-176.5 69.5q-122 0 -193 -72.5t-114 -237t-43 -293.5z" />
<glyph unicode="e" d="M69 405q0 201 71 360.5t200 248t290 88.5q205 0 319 -103t114 -291q0 -105 -24 -205h-783q-6 -35 -9 -113q0 -133 66.5 -204t200.5 -71q97 0 176 48t123 131l138 -63q-73 -131 -185.5 -191t-272.5 -60q-201 0 -312.5 111.5t-111.5 313.5zM280 641h600l4 72 q0 124 -64.5 190t-185.5 66q-134 0 -225.5 -85.5t-128.5 -242.5z" />
<glyph unicode="f" horiz-adv-x="569" d="M69 0l185 951h-152l26 131h152l23 122q23 112 60.5 167.5t99.5 84t159 28.5q74 0 124 -12l-26 -137l-45 6l-46 2q-63 0 -96.5 -32.5t-53.5 -131.5l-19 -97h211l-26 -131h-211l-185 -951h-180z" />
<glyph unicode="g" d="M4 -173l163 42q35 -157 234 -157q142 0 220 73.5t110 241.5l34 174h-2q-62 -89 -109.5 -128t-107 -60t-136.5 -21q-153 0 -246.5 100.5t-93.5 266.5q0 133 37.5 287t102.5 256t158 150.5t220 48.5q121 0 204.5 -57t107.5 -147h2q7 37 25 106.5t23 78.5h171l-19 -82 l-30 -142l-161 -827q-48 -242 -172 -349t-342 -107q-339 0 -393 252zM259 373q0 -121 52.5 -184.5t154.5 -63.5q108 0 196 78.5t136.5 215.5t48.5 285q0 125 -64 194.5t-176 69.5q-90 0 -150 -37t-101 -116t-69 -210.5t-28 -231.5z" />
<glyph unicode="h" d="M34 0l288 1484h180l-75 -386q-18 -100 -47 -201h3q83 115 166.5 159.5t198.5 44.5q148 0 222.5 -73t74.5 -211q0 -64 -21 -164l-127 -653h-181l126 645q18 88 18 150q0 167 -179 167q-126 0 -222 -96t-128 -260l-118 -606h-179z" />
<glyph unicode="i" horiz-adv-x="455" d="M33 0l210 1082h180l-211 -1082h-179zM287 1312l34 172h180l-34 -172h-180z" />
<glyph unicode="j" horiz-adv-x="455" d="M-229 -411l23 136q52 -8 83 -8q59 0 89 42t47 134l231 1189h180l-237 -1216q-31 -158 -101 -224.5t-186 -66.5q-56 0 -129 14zM289 1312l33 172h180l-33 -172h-180z" />
<glyph unicode="k" horiz-adv-x="1024" d="M34 0l288 1484h180l-179 -917l204 190l361 325h222l-530 -465l336 -617h-195l-268 502l-168 -124l-72 -378h-179z" />
<glyph unicode="l" horiz-adv-x="455" d="M33 0l288 1484h180l-289 -1484h-179z" />
<glyph unicode="m" horiz-adv-x="1706" d="M34 0l166 851q20 95 39 231h170q0 -11 -10.5 -77.5t-17.5 -107.5h3q73 114 146.5 159t175.5 45q121 0 192 -59.5t85 -172.5q83 130 163.5 181t184.5 51q135 0 207.5 -73t72.5 -211q0 -64 -21 -164l-127 -653h-178l124 634q25 125 25 174q0 75 -38 114.5t-124 39.5 q-116 0 -202 -97.5t-114 -257.5l-118 -607h-178l124 634q25 125 25 174q0 75 -38 114.5t-124 39.5q-116 0 -202.5 -99t-113.5 -259l-118 -604h-179z" />
<glyph unicode="n" d="M34 0l166 851q20 95 39 231h170q0 -11 -10.5 -77.5t-17.5 -107.5h3q83 115 166.5 159.5t198.5 44.5q148 0 222.5 -73t74.5 -211q0 -64 -21 -164l-127 -653h-181l126 645q18 88 18 150q0 167 -179 167q-126 0 -222 -96t-128 -260l-118 -606h-180z" />
<glyph unicode="o" d="M67 419q4 204 74 362t194 239t307 81q210 0 321 -109.5t111 -308.5q0 -130 -40 -270.5t-114.5 -238t-182.5 -146t-246 -48.5q-196 0 -310 118t-114 321zM252 416q0 -148 64 -225.5t186 -77.5q103 0 165.5 34.5t109.5 108t76.5 187.5t34.5 240q0 286 -248 286 q-135 0 -216.5 -69.5t-126.5 -210.5t-45 -273z" />
<glyph unicode="p" d="M-51 -425l249 1286q23 111 35 221h167q0 -27 -6.5 -82.5t-10.5 -78.5h4q73 95 154 138t200 43q157 0 244.5 -94.5t87.5 -259.5q0 -203 -61.5 -393.5t-173 -282.5t-284.5 -92q-123 0 -200.5 52t-109.5 146h-5q0 -11 -8.5 -65t-102.5 -538h-179zM295 377 q0 -125 63.5 -194.5t176.5 -69.5q124 0 196 75.5t113 240t41 287.5t-47 185t-149 62q-99 0 -169.5 -40.5t-119.5 -122t-77 -204t-28 -219.5z" />
<glyph unicode="q" d="M69 333q0 203 61.5 393.5t173 282.5t284.5 92q123 0 200.5 -52t109.5 -146h5q11 54 27 118t22 75h173q-23 -78 -65 -295l-238 -1226h-180l85 439l32 146h-4q-73 -95 -154 -138t-200 -43q-157 0 -244.5 94.5t-87.5 259.5zM257 365q0 -123 47 -185t149 -62q99 0 169.5 40.5 t119.5 122t77 204t28 219.5q0 125 -63.5 194.5t-176.5 69.5q-122 0 -193 -72.5t-114 -237t-43 -293.5z" />
<glyph unicode="r" horiz-adv-x="682" d="M34 0l162 830l25 138l18 114h170l-35 -221h4q66 133 130 187t148 54q46 0 95 -14l-33 -150q-44 13 -90 13q-105 0 -189.5 -110t-114.5 -277l-110 -564h-180z" />
<glyph unicode="s" horiz-adv-x="1024" d="M5 223l147 56q33 -88 102.5 -128t186.5 -40q143 0 217 48.5t74 141.5q0 62 -51 103.5t-216 92.5q-128 42 -192 82t-98 93.5t-34 124.5q0 145 116 223.5t327 78.5q354 0 398 -255l-163 -25q-22 79 -83 114t-164 35q-124 0 -190.5 -39.5t-66.5 -111.5q0 -42 21 -71 t60.5 -51.5t182.5 -67.5q127 -40 191.5 -81t100.5 -97t36 -132q0 -162 -124 -249.5t-358 -87.5q-174 0 -276.5 58.5t-143.5 184.5z" />
<glyph unicode="t" horiz-adv-x="569" d="M93 166q0 55 15 130l126 655h-125l26 131h127l105 242h120l-47 -242h200l-26 -131h-200l-125 -645q-12 -60 -12 -95q0 -88 90 -88q42 0 100 14l-19 -133q-99 -24 -173 -24q-85 0 -133.5 51t-48.5 135z" />
<glyph unicode="u" d="M86 265q0 64 21 164l127 653h181l-126 -645q-18 -88 -18 -150q0 -167 179 -167q126 0 222 96t128 260l118 606h180l-166 -851q-20 -95 -39 -231h-170q0 11 10.5 77.5t17.5 107.5h-3q-83 -115 -166.5 -159.5t-198.5 -44.5q-148 0 -222.5 73t-74.5 211z" />
<glyph unicode="v" horiz-adv-x="1024" d="M112 1082h187l101 -704q9 -68 19 -184l4 -53l26 53q45 94 93 182l384 706h196l-615 -1082h-213z" />
<glyph unicode="w" horiz-adv-x="1479" d="M102 1082h178l40 -735l7 -198l81 190l341 743h193l44 -743q6 -108 6 -190q33 79 421 933h176l-521 -1082h-209l-37 698l-6 236q-30 -75 -54 -131.5t-360 -802.5h-208z" />
<glyph unicode="x" horiz-adv-x="1024" d="M-82 0l492 556l-264 526h189l193 -421l350 421h206l-469 -524l281 -558h-190l-209 444l-380 -444h-199z" />
<glyph unicode="y" horiz-adv-x="1024" d="M-116 -411l31 134q45 -8 77 -8q95 0 167.5 64t142.5 186l27 47l-217 1070h183l112 -598q15 -80 28 -170.5t14 -117.5q10 22 26 54t453 832h199l-626 -1082q-111 -193 -178.5 -270.5t-141 -116t-165.5 -38.5q-72 0 -132 14z" />
<glyph unicode="z" horiz-adv-x="1024" d="M-12 0l23 137l742 806h-566l25 139h784l-24 -137l-742 -806h621l-25 -139h-838z" />
<glyph unicode="{" horiz-adv-x="684" d="M21 466l25 127q110 4 174 61.5t87 174.5l70 362q28 143 103.5 218t217.5 75h135l-25 -129h-63q-89 0 -137.5 -47t-72.5 -168l-69 -356q-19 -95 -84.5 -162.5t-158.5 -89.5v-2q69 -17 109.5 -67t40.5 -128q0 -27 -6 -59l-61 -319q-5 -24 -8.5 -64.5t-4.5 -57.5v-6 q0 -56 34.5 -90.5t111.5 -34.5h48l-25 -129h-96q-111 0 -176.5 66.5t-65.5 183.5q0 62 10 117l56 287q9 44 9 77q0 83 -46.5 119.5t-131.5 40.5z" />
<glyph unicode="|" horiz-adv-x="532" d="M213 -454v1938h166v-1938h-166z" />
<glyph unicode="}" horiz-adv-x="684" d="M-159 -425l25 129h63q89 0 137.5 47t72.5 168l69 356q19 95 84.5 162.5t158.5 89.5v2q-69 17 -109.5 67t-40.5 128q0 28 6 59l61 319q5 24 8.5 64.5t4.5 57.5v6q0 56 -34.5 90.5t-111.5 34.5h-48l25 129h96q111 0 176.5 -66.5t65.5 -183.5q0 -62 -10 -117l-56 -287 q-9 -43 -9 -77q0 -83 46.5 -119.5t131.5 -40.5l-25 -127q-110 -4 -174 -61.5t-87 -174.5l-70 -362q-28 -143 -103.5 -218t-217.5 -75h-135z" />
<glyph unicode="~" horiz-adv-x="1196" d="M122 580v143q111 84 263 84q102 0 235 -46q147 -51 190.5 -61t79.5 -10q130 0 244 92v-149q-60 -42 -117.5 -61t-142.5 -19q-69 0 -141.5 22t-145.5 48q-129 45 -217 45q-67 0 -125 -20.5t-123 -67.5z" />
<glyph unicode="&#xa1;" horiz-adv-x="682" d="M64 -326l220 1012h148l-172 -1012h-196zM302 882l40 201h194l-40 -201h-194z" />
<glyph unicode="&#xa2;" d="M158 551q0 136 38 272.5t103 230.5t158 145.5t226 57.5l28 152h124l-29 -158q131 -19 204.5 -101t81.5 -210l-177 -25q-6 97 -60 149.5t-145 52.5q-126 0 -204 -67.5t-121 -214.5t-43 -290q0 -267 218 -267q205 0 289 230l156 -49q-116 -308 -417 -323l-32 -167h-124 l34 173q-149 22 -228.5 128.5t-79.5 280.5z" />
<glyph unicode="&#xa3;" d="M-12 0l29 154q97 46 155.5 124.5t82.5 202.5l28 144h-186l25 129h186l55 280q40 205 152.5 300.5t300.5 95.5q148 0 243.5 -62.5t118.5 -167.5l-164 -50q-20 64 -76 98t-129 34q-114 0 -177.5 -57.5t-87.5 -182.5l-56 -288h408l-25 -129h-408l-27 -147 q-20 -111 -82.5 -197t-151.5 -128h464q103 0 167.5 42.5t90.5 138.5l151 -24q-37 -152 -137 -231t-250 -79h-700z" />
<glyph unicode="&#xa4;" d="M141 330l102 102q-78 114 -78 252t78 252l-100 100l104 103l99 -101q114 82 254 82q137 0 251 -80l97 97l104 -105l-96 -96q80 -117 80 -252q0 -138 -82 -252l100 -100l-102 -105l-101 101q-114 -78 -251 -78q-143 0 -252 80l-105 -105zM319 686q0 -114 82 -197t199 -83 q114 0 197 81t83 199q0 116 -82.5 198.5t-197.5 82.5q-117 0 -199 -83.5t-82 -197.5z" />
<glyph unicode="&#xa5;" d="M45 303l25 127h381l32 154h-383l24 125h320l-285 700h193l246 -647l500 647h205l-558 -700h321l-24 -125h-383l-30 -154h383l-25 -127h-383l-59 -303h-178l59 303h-381z" />
<glyph unicode="&#xa6;" horiz-adv-x="532" d="M213 324h166v-779h-166v779zM213 707v778h166v-778h-166z" />
<glyph unicode="&#xa7;" d="M-34 71l147 56q33 -88 102.5 -128t186.5 -40q143 0 217 48.5t74 141.5q0 63 -53 106.5t-213 92.5q-325 100 -325 325q0 110 70.5 182t205.5 102q-134 85 -134 225q0 145 117 223.5t334 78.5q346 0 390 -255l-163 -25q-41 149 -234 149q-270 0 -270 -163q0 -55 53.5 -98 t208.5 -93q182 -57 256 -136.5t74 -189.5q0 -224 -274 -285q132 -83 132 -223q0 -162 -124 -249.5t-361 -87.5q-171 0 -274 58.5t-143 184.5zM276 688q0 -69 61.5 -121.5t212.5 -98.5q132 5 208.5 55.5t76.5 138.5q0 51 -28.5 88.5t-82.5 66.5t-191 69q-117 -6 -187 -60 t-70 -138z" />
<glyph unicode="&#xa8;" horiz-adv-x="682" d="M137 1219l35 184h175l-35 -184h-175zM521 1219l35 184h173l-35 -184h-173z" />
<glyph unicode="&#xa9;" horiz-adv-x="1509" d="M63 707q0 193 97 361t265 265t361 97q194 0 362.5 -97.5t264.5 -264.5t96 -361q0 -193 -96.5 -361.5t-265 -265t-361.5 -96.5q-197 0 -366.5 100.5t-263 267t-93.5 355.5zM158 707q0 -169 84.5 -315t229.5 -230t314 -84q170 0 316.5 84.5t230.5 230t84 314.5 q0 168 -84.5 313.5t-231 230t-315.5 84.5q-168 0 -314 -84.5t-230 -230.5t-84 -313zM401 709q0 203 100 313.5t289 110.5q244 0 340 -209l-114 -33q-32 69 -90 103t-134 34q-127 0 -194.5 -80.5t-67.5 -238.5q0 -155 71 -240.5t196 -85.5q78 0 135.5 37.5t97.5 118.5 l115 -35q-62 -121 -146.5 -173t-201.5 -52q-188 0 -292 113t-104 317z" />
<glyph unicode="&#xaa;" horiz-adv-x="758" d="M89 858q0 249 364 254l179 4q18 90 18 113q0 102 -127 102q-152 0 -184 -135l-132 17q58 219 318 219q127 0 196.5 -53.5t69.5 -145.5q0 -39 -10 -84l-53 -275q-6 -31 -6 -53q0 -55 48 -55q20 0 44 8l-15 -104q-37 -13 -76 -13q-66 0 -101.5 29.5t-35.5 78.5l4 40h-4 q-66 -85 -131 -119.5t-144 -34.5q-101 0 -161.5 56t-60.5 151zM243 865q0 -47 29 -75t80 -28q89 0 162 62.5t90 147.5l10 52l-139 -4q-123 -3 -177.5 -41.5t-54.5 -113.5z" />
<glyph unicode="&#xab;" d="M76 506l12 63l408 371h157l-6 -38l-407 -372l265 -367l-5 -22h-159zM551 506l12 63l410 371h158l-6 -37l-410 -372l268 -367l-5 -23h-160z" />
<glyph unicode="&#xac;" horiz-adv-x="1196" d="M100 608v146h995v-574h-145v428h-850z" />
<glyph unicode="&#xad;" horiz-adv-x="682" d="M105 464l31 160h500l-31 -160h-500z" />
<glyph unicode="&#xae;" horiz-adv-x="1509" d="M63 707q0 193 97 361t265 265t361 97q194 0 362.5 -97.5t264.5 -264.5t96 -361q0 -193 -96.5 -361.5t-265 -265t-361.5 -96.5q-197 0 -366.5 100.5t-263 267t-93.5 355.5zM158 707q0 -169 84.5 -315t229.5 -230t314 -84q170 0 316.5 84.5t230.5 230t84 314.5 q0 168 -84.5 313.5t-231 230t-315.5 84.5q-168 0 -314 -84.5t-230 -230.5t-84 -313zM500 289v831h307q142 0 217.5 -63t75.5 -174q0 -102 -52 -163.5t-137 -80.5l221 -350h-145l-199 336h-161v-336h-127zM627 721h182q80 0 122 42.5t42 117.5q0 69 -47.5 105t-128.5 36h-170 v-301z" />
<glyph unicode="&#xaf;" horiz-adv-x="1131" d="M-17 1503v117h1165v-117h-1165z" />
<glyph unicode="&#xb0;" horiz-adv-x="819" d="M196 1145q0 117 83.5 201t203.5 84t203.5 -83t83.5 -202t-84.5 -202t-202.5 -83t-202.5 84t-84.5 201zM305 1145q0 -74 52.5 -127t125.5 -53q74 0 126 52.5t52 127.5q0 76 -51.5 128t-126.5 52t-126.5 -53t-51.5 -127z" />
<glyph unicode="&#xb1;" horiz-adv-x="1124" d="M65 0v145h995v-145h-995zM65 680v145h424v394h147v-394h424v-145h-424v-395h-147v395h-424z" />
<glyph unicode="&#xb2;" horiz-adv-x="682" d="M30 563l18 103q30 48 68.5 87.5t84.5 74.5t150 97q131 77 171.5 111t62 71.5t21.5 84.5q0 51 -34 87t-99 36q-70 0 -120 -39t-64 -102l-125 15q29 114 109.5 173t206.5 59q119 0 190.5 -60t71.5 -155q0 -68 -30.5 -123t-84 -102t-200.5 -133q-97 -56 -147.5 -94.5 t-76.5 -77.5h448l-20 -113h-601z" />
<glyph unicode="&#xb3;" horiz-adv-x="682" d="M53 785l129 16q9 -72 54.5 -109t119.5 -37q86 0 133.5 44.5t47.5 120.5q0 54 -44 87t-121 33h-61l21 109h57q97 0 149 41.5t52 113.5q0 48 -33 79.5t-90 31.5q-68 0 -116.5 -35t-67.5 -100l-125 25q67 216 319 216q111 0 181 -56.5t70 -146.5q0 -179 -218 -223v-2 q73 -13 118 -60.5t45 -115.5q0 -121 -89 -193.5t-234 -72.5q-261 0 -297 234z" />
<glyph unicode="&#xb4;" horiz-adv-x="682" d="M175 1201l3 20l253 287h217l-5 -29l-374 -278h-94z" />
<glyph unicode="&#xb5;" horiz-adv-x="1180" d="M-1 -425l293 1507h181l-134 -686q-11 -64 -11 -101q0 -176 162 -176q112 0 194.5 95t110.5 258l118 610h180l-157 -807q-9 -41 -9 -82q0 -72 57 -72q12 0 56 8l-22 -129q-72 -20 -123 -20q-74 0 -105 48.5t-31 140.5h-2q-129 -189 -309 -189q-62 0 -107 21t-68 58 l-94 -484h-180z" />
<glyph unicode="&#xb6;" horiz-adv-x="1100" d="M144 1049q0 169 98.5 264.5t271.5 95.5h563v-102h-129v-1571h-112v1571h-217v-1571h-113v958q-168 0 -265 92.5t-97 262.5z" />
<glyph unicode="&#xb7;" horiz-adv-x="682" d="M221 446l43 220h195l-43 -220h-195z" />
<glyph unicode="&#xb8;" horiz-adv-x="682" d="M71 -418l21 91q48 -6 88 -6q91 0 128.5 22t37.5 67q0 72 -119 72q-44 0 -58 -2l101 174h107l-59 -96q81 -5 121.5 -41t40.5 -95q0 -193 -303 -193q-50 0 -106 7z" />
<glyph unicode="&#xb9;" horiz-adv-x="682" d="M61 563l20 107h211l118 609l-229 -138l26 131l237 137h123l-144 -739h215l-21 -107h-556z" />
<glyph unicode="&#xba;" horiz-adv-x="748" d="M101 950q0 59 13 128q68 354 406 354q145 0 223.5 -78.5t78.5 -220.5q0 -59 -13 -128q-68 -354 -406 -354q-145 0 -223.5 78.5t-78.5 220.5zM248 938q0 -180 160 -180q97 0 152 49.5t86.5 156.5t31.5 190q0 94 -43.5 132.5t-121.5 38.5q-95 0 -149 -47.5t-85 -150.5 t-31 -189z" />
<glyph unicode="&#xbb;" d="M5 141l7 39l410 367l-264 372l4 21h158l263 -371l-12 -63l-406 -365h-160zM482 141l7 39l410 367l-264 372l4 21h156l266 -371l-12 -63l-409 -365h-158z" />
<glyph unicode="&#xbc;" horiz-adv-x="1708" d="M96 563l20 107h211l118 609l-229 -138l26 131l237 137h123l-144 -739h215l-21 -107h-556zM274 0l1150 1409h154l-1151 -1409h-153zM901 179l21 111l484 557h161l-108 -555h125l-22 -113h-125l-35 -178h-131l35 178h-405zM1059 292h269l63 322l21 100l-108 -135z" />
<glyph unicode="&#xbd;" horiz-adv-x="1708" d="M47 563l20 107h211l118 609l-229 -138l26 131l237 137h123l-144 -739h215l-21 -107h-556zM224 0l1150 1409h154l-1151 -1409h-153zM937 1l18 103q30 48 68.5 87.5t84.5 74.5t150 97q131 77 171.5 111t62 71.5t21.5 84.5q0 51 -34 87t-99 36q-70 0 -120 -39t-64 -102 l-125 15q29 114 109.5 173t206.5 59q119 0 190.5 -60t71.5 -155q0 -68 -30.5 -123t-84 -102t-200.5 -133q-97 -56 -147.5 -94.5t-76.5 -77.5h448l-20 -113h-601z" />
<glyph unicode="&#xbe;" horiz-adv-x="1708" d="M136 785l129 16q9 -72 54.5 -109t119.5 -37q86 0 133.5 44.5t47.5 120.5q0 54 -44 87t-121 33h-61l21 109h57q97 0 149 41.5t52 113.5q0 48 -33 79.5t-90 31.5q-68 0 -116.5 -35t-67.5 -100l-125 25q67 216 319 216q111 0 181 -56.5t70 -146.5q0 -179 -218 -223v-2 q73 -13 118 -60.5t45 -115.5q0 -121 -89 -193.5t-234 -72.5q-261 0 -297 234zM274 0l1150 1409h154l-1151 -1409h-153zM901 179l21 111l484 557h161l-108 -555h125l-22 -113h-125l-35 -178h-131l35 178h-405zM1059 292h269l63 322l21 100l-108 -135z" />
<glyph unicode="&#xbf;" horiz-adv-x="1251" d="M65 10q0 97 30.5 165.5t79 119t109 88t120.5 71.5q127 72 176 128t63 124h175q-13 -80 -48 -139.5t-87.5 -106.5t-186.5 -123q-105 -59 -151 -100.5t-69.5 -90.5t-23.5 -115q0 -98 73 -158t189 -60q140 0 231 70t129 192l165 -40q-63 -195 -198.5 -288.5t-343.5 -93.5 q-197 0 -314.5 100t-117.5 257zM665 882l39 201h195l-39 -201h-195z" />
<glyph unicode="&#xc0;" horiz-adv-x="1366" d="M-83 0l848 1409h217l292 -1409h-195l-75 412h-639l-240 -412h-208zM449 561h527l-102 553l-26 151q-13 -26 -37 -69t-362 -635zM650 1747l5 29h207l173 -226l-3 -20h-89z" />
<glyph unicode="&#xc1;" horiz-adv-x="1366" d="M-83 0l848 1409h217l292 -1409h-195l-75 412h-639l-240 -412h-208zM449 561h527l-102 553l-26 151q-13 -26 -37 -69t-362 -635zM743 1530l3 20l261 226h207l-5 -29l-352 -217h-114z" />
<glyph unicode="&#xc2;" horiz-adv-x="1366" d="M-83 0l848 1409h217l292 -1409h-195l-75 412h-639l-240 -412h-208zM449 561h527l-102 553l-26 151q-13 -26 -37 -69t-362 -635zM532 1530l4 20l280 240h204l177 -240l-4 -20h-95l-192 139h-2l-259 -139h-113z" />
<glyph unicode="&#xc3;" horiz-adv-x="1366" d="M-83 0l848 1409h217l292 -1409h-195l-75 412h-639l-240 -412h-208zM449 561h527l-102 553l-26 151q-13 -26 -37 -69t-362 -635zM523 1530q47 152 107.5 210t143.5 58q44 0 82 -20t72 -44.5t65 -44.5t61 -20q91 0 132 129h102q-35 -109 -67 -159.5t-77 -79.5t-107 -29 q-42 0 -80 20t-72.5 44.5t-66 44.5t-62.5 20q-46 0 -77 -29.5t-56 -99.5h-100z" />
<glyph unicode="&#xc4;" horiz-adv-x="1366" d="M-83 0l848 1409h217l292 -1409h-195l-75 412h-639l-240 -412h-208zM449 561h527l-102 553l-26 151q-13 -26 -37 -69t-362 -635zM606 1530l35 184h175l-35 -184h-175zM990 1530l35 184h173l-35 -184h-173z" />
<glyph unicode="&#xc5;" horiz-adv-x="1366" d="M-101 0l848 1409h217l292 -1409h-195l-75 412h-639l-240 -412h-208zM431 561h527l-102 553l-26 151q-13 -26 -37 -69t-362 -635zM616 1546q0 101 71 171t171 70q99 0 170.5 -70.5t71.5 -170.5t-71 -171t-171 -71t-171 71t-71 171zM723 1546q0 -55 38 -96t97 -41 q58 0 96 40t38 97q0 58 -38 96t-96 38q-59 0 -97 -39.5t-38 -94.5z" />
<glyph unicode="&#xc6;" horiz-adv-x="2048" d="M-81 0l959 1409h1189l-30 -156h-739l-88 -452h679l-30 -154h-679l-95 -491h780l-31 -156h-971l81 412h-543l-279 -412h-203zM500 561h473l136 701h-151l-136 -216z" />
<glyph unicode="&#xc7;" horiz-adv-x="1479" d="M113 569q0 246 105 445t291.5 307.5t416.5 108.5q217 0 366.5 -90.5t197.5 -254.5l-180 -55q-36 112 -139.5 178t-254.5 66q-184 0 -324 -88.5t-215 -249t-75 -370.5q0 -200 109 -315.5t302 -115.5q148 0 276 73.5t226 217.5l143 -89q-126 -188 -286 -272.5t-372 -84.5 q-181 0 -314.5 72.5t-203 206.5t-69.5 310zM461 -418l21 91q48 -6 88 -6q91 0 128.5 22t37.5 67q0 72 -119 72q-44 0 -58 -2l101 174h107l-59 -96q81 -5 121.5 -41t40.5 -95q0 -193 -303 -193q-50 0 -106 7z" />
<glyph unicode="&#xc8;" horiz-adv-x="1366" d="M63 0l273 1409h1049l-30 -156h-858l-88 -452h798l-30 -154h-798l-95 -491h899l-30 -156h-1090zM644 1747l5 29h207l173 -226l-3 -20h-89z" />
<glyph unicode="&#xc9;" horiz-adv-x="1366" d="M63 0l273 1409h1049l-30 -156h-858l-88 -452h798l-30 -154h-798l-95 -491h899l-30 -156h-1090zM727 1530l3 20l261 226h207l-5 -29l-352 -217h-114z" />
<glyph unicode="&#xca;" horiz-adv-x="1366" d="M63 0l273 1409h1049l-30 -156h-858l-88 -452h798l-30 -154h-798l-95 -491h899l-30 -156h-1090zM541 1530l4 20l280 240h204l177 -240l-4 -20h-95l-192 139h-2l-259 -139h-113z" />
<glyph unicode="&#xcb;" horiz-adv-x="1366" d="M63 0l273 1409h1049l-30 -156h-858l-88 -452h798l-30 -154h-798l-95 -491h899l-30 -156h-1090zM593 1530l35 184h175l-35 -184h-175zM977 1530l35 184h173l-35 -184h-173z" />
<glyph unicode="&#xcc;" horiz-adv-x="569" d="M81 0l274 1409h191l-274 -1409h-191zM211 1747l5 29h207l173 -226l-3 -20h-89z" />
<glyph unicode="&#xcd;" horiz-adv-x="569" d="M81 0l274 1409h191l-274 -1409h-191zM365 1530l3 20l261 226h207l-5 -29l-352 -217h-114z" />
<glyph unicode="&#xce;" horiz-adv-x="569" d="M81 0l274 1409h191l-274 -1409h-191zM129 1530l4 20l280 240h204l177 -240l-4 -20h-95l-192 139h-2l-259 -139h-113z" />
<glyph unicode="&#xcf;" horiz-adv-x="569" d="M81 0l274 1409h191l-274 -1409h-191zM187 1530l35 184h175l-35 -184h-175zM571 1530l35 184h173l-35 -184h-173z" />
<glyph unicode="&#xd0;" horiz-adv-x="1479" d="M34 647l30 154h154l118 608h428q312 0 490.5 -164.5t178.5 -453.5q0 -234 -98.5 -412.5t-289 -278.5t-433.5 -100h-549l125 647h-154zM283 153h304q195 0 344 77.5t228.5 223t79.5 339.5q0 219 -126 341t-353 122h-262l-89 -455h406l-30 -154h-406z" />
<glyph unicode="&#xd1;" horiz-adv-x="1479" d="M63 0l273 1409h212l534 -1215q26 189 45 284l181 931h172l-273 -1409h-220l-531 1210q-22 -171 -42 -267l-181 -943h-170zM571 1530q47 152 107.5 210t143.5 58q44 0 82 -20t72 -44.5t65 -44.5t61 -20q91 0 132 129h102q-35 -109 -67 -159.5t-77 -79.5t-107 -29 q-42 0 -80 20t-72.5 44.5t-66 44.5t-62.5 20q-46 0 -77 -29.5t-56 -99.5h-100z" />
<glyph unicode="&#xd2;" horiz-adv-x="1593" d="M111 573q0 239 105.5 439.5t294.5 309t427 108.5q277 0 437.5 -157t160.5 -422q-5 -268 -112 -463.5t-293 -301.5t-422 -106q-284 0 -441 157.5t-157 435.5zM302 563q0 -209 106.5 -318.5t309.5 -109.5q197 0 335.5 86.5t215 259.5t76.5 366q0 207 -108.5 318t-307.5 111 q-200 0 -339.5 -89t-213.5 -266t-74 -358zM677 1747l5 29h207l173 -226l-3 -20h-89z" />
<glyph unicode="&#xd3;" horiz-adv-x="1593" d="M111 573q0 239 105.5 439.5t294.5 309t427 108.5q277 0 437.5 -157t160.5 -422q-5 -268 -112 -463.5t-293 -301.5t-422 -106q-284 0 -441 157.5t-157 435.5zM302 563q0 -209 106.5 -318.5t309.5 -109.5q197 0 335.5 86.5t215 259.5t76.5 366q0 207 -108.5 318t-307.5 111 q-200 0 -339.5 -89t-213.5 -266t-74 -358zM817 1530l3 20l261 226h207l-5 -29l-352 -217h-114z" />
<glyph unicode="&#xd4;" horiz-adv-x="1593" d="M111 573q0 239 105.5 439.5t294.5 309t427 108.5q277 0 437.5 -157t160.5 -422q-5 -268 -112 -463.5t-293 -301.5t-422 -106q-284 0 -441 157.5t-157 435.5zM302 563q0 -209 106.5 -318.5t309.5 -109.5q197 0 335.5 86.5t215 259.5t76.5 366q0 207 -108.5 318t-307.5 111 q-200 0 -339.5 -89t-213.5 -266t-74 -358zM600 1530l4 20l280 240h204l177 -240l-4 -20h-95l-192 139h-2l-259 -139h-113z" />
<glyph unicode="&#xd5;" horiz-adv-x="1593" d="M111 573q0 239 105.5 439.5t294.5 309t427 108.5q277 0 437.5 -157t160.5 -422q-5 -268 -112 -463.5t-293 -301.5t-422 -106q-284 0 -441 157.5t-157 435.5zM302 563q0 -209 106.5 -318.5t309.5 -109.5q197 0 335.5 86.5t215 259.5t76.5 366q0 207 -108.5 318t-307.5 111 q-200 0 -339.5 -89t-213.5 -266t-74 -358zM622 1530q47 152 107.5 210t143.5 58q44 0 82 -20t72 -44.5t65 -44.5t61 -20q91 0 132 129h102q-35 -109 -67 -159.5t-77 -79.5t-107 -29q-42 0 -80 20t-72.5 44.5t-66 44.5t-62.5 20q-46 0 -77 -29.5t-56 -99.5h-100z" />
<glyph unicode="&#xd6;" horiz-adv-x="1593" d="M111 573q0 239 105.5 439.5t294.5 309t427 108.5q277 0 437.5 -157t160.5 -422q-5 -268 -112 -463.5t-293 -301.5t-422 -106q-284 0 -441 157.5t-157 435.5zM302 563q0 -209 106.5 -318.5t309.5 -109.5q197 0 335.5 86.5t215 259.5t76.5 366q0 207 -108.5 318t-307.5 111 q-200 0 -339.5 -89t-213.5 -266t-74 -358zM664 1530l35 184h175l-35 -184h-175zM1048 1530l35 184h173l-35 -184h-173z" />
<glyph unicode="&#xd7;" horiz-adv-x="1196" d="M172 330l354 354l-352 352l104 103l350 -353l350 351l105 -105l-350 -348l352 -352l-102 -105l-353 353l-356 -355z" />
<glyph unicode="&#xd8;" horiz-adv-x="1593" d="M-56 -53l260 254q-103 149 -103 372q0 239 105.5 439.5t294.5 309t427 108.5q248 0 404 -127l167 163h192l-268 -261q103 -145 103 -354q-5 -268 -112 -463.5t-293 -301.5t-422 -106q-252 0 -405 124l-161 -157h-189zM292 563q0 -136 46 -231l870 850q-109 94 -289 94 q-200 0 -339.5 -89t-213.5 -266t-74 -358zM419 226q105 -91 289 -91q197 0 335.5 86.5t215 259.5t76.5 366q0 133 -46 227z" />
<glyph unicode="&#xd9;" horiz-adv-x="1479" d="M153 431q0 44 7.5 105.5t15.5 98.5l150 774h191l-162 -843q-17 -87 -17 -143q0 -136 87.5 -212t244.5 -76q384 0 461 406l168 868h190l-170 -879q-54 -273 -222 -411.5t-443 -138.5q-233 0 -367 120.5t-134 330.5zM689 1747l5 29h207l173 -226l-3 -20h-89z" />
<glyph unicode="&#xda;" horiz-adv-x="1479" d="M153 431q0 44 7.5 105.5t15.5 98.5l150 774h191l-162 -843q-17 -87 -17 -143q0 -136 87.5 -212t244.5 -76q384 0 461 406l168 868h190l-170 -879q-54 -273 -222 -411.5t-443 -138.5q-233 0 -367 120.5t-134 330.5zM776 1530l3 20l261 226h207l-5 -29l-352 -217h-114z" />
<glyph unicode="&#xdb;" horiz-adv-x="1479" d="M153 431q0 44 7.5 105.5t15.5 98.5l150 774h191l-162 -843q-17 -87 -17 -143q0 -136 87.5 -212t244.5 -76q384 0 461 406l168 868h190l-170 -879q-54 -273 -222 -411.5t-443 -138.5q-233 0 -367 120.5t-134 330.5zM584 1530l4 20l280 240h204l177 -240l-4 -20h-95 l-192 139h-2l-259 -139h-113z" />
<glyph unicode="&#xdc;" horiz-adv-x="1479" d="M153 431q0 44 7.5 105.5t15.5 98.5l150 774h191l-162 -843q-17 -87 -17 -143q0 -136 87.5 -212t244.5 -76q384 0 461 406l168 868h190l-170 -879q-54 -273 -222 -411.5t-443 -138.5q-233 0 -367 120.5t-134 330.5zM634 1530l35 184h175l-35 -184h-175zM1018 1530l35 184 h173l-35 -184h-173z" />
<glyph unicode="&#xdd;" horiz-adv-x="1366" d="M213 1409h196l306 -674l560 674h214l-704 -825l-113 -584h-190l115 584zM702 1530l3 20l261 226h207l-5 -29l-352 -217h-114z" />
<glyph unicode="&#xde;" horiz-adv-x="1366" d="M63 0l274 1409h191l-49 -252h327q237 0 369 -102t132 -287q0 -220 -152.5 -345.5t-416.5 -125.5h-424l-60 -297h-191zM344 448h387q382 0 382 311q0 119 -79 182t-233 63h-349z" />
<glyph unicode="&#xdf;" horiz-adv-x="1251" d="M34 0l200 1027q47 237 177.5 347t350.5 110q177 0 283.5 -81t106.5 -207q0 -151 -155 -256q-96 -65 -125.5 -96t-29.5 -67q0 -40 31 -82.5t110 -115.5q140 -131 140 -271q0 -159 -108 -248t-301 -89q-86 0 -167.5 16t-129.5 39l56 143q116 -54 246 -54q110 0 169 49.5 t59 140.5q0 56 -32 107.5t-106 116.5q-73 63 -106 116.5t-33 110.5q0 76 38.5 133t114.5 102q82 48 117 92.5t35 102.5q0 69 -60 113t-162 44q-145 0 -227 -79.5t-114 -242.5l-198 -1021h-180z" />
<glyph unicode="&#xe0;" d="M52 278q0 185 132.5 280t422.5 99l232 3q19 98 19 127q0 91 -53 134.5t-147 43.5q-119 0 -180 -42.5t-88 -129.5l-178 29q45 147 156.5 213.5t299.5 66.5q171 0 270.5 -80t99.5 -215q0 -64 -19 -157l-74 -378q-11 -48 -11 -88q0 -73 81 -73q27 0 60 7l-14 -112 q-66 -16 -128 -16q-93 0 -135.5 38.5t-42.5 114.5l5 64h-6q-83 -126 -172 -176.5t-215 -50.5q-140 0 -227.5 84t-87.5 214zM243 286q0 -75 48.5 -122t125.5 -47q97 0 175 41.5t129 108.5t67 144l27 125l-199 -4q-119 -3 -187 -21.5t-105.5 -47t-59 -72t-21.5 -105.5z M471 1479l5 29h207l161 -287l-3 -20h-88z" />
<glyph unicode="&#xe1;" d="M52 278q0 185 132.5 280t422.5 99l232 3q19 98 19 127q0 91 -53 134.5t-147 43.5q-119 0 -180 -42.5t-88 -129.5l-178 29q45 147 156.5 213.5t299.5 66.5q171 0 270.5 -80t99.5 -215q0 -64 -19 -157l-74 -378q-11 -48 -11 -88q0 -73 81 -73q27 0 60 7l-14 -112 q-66 -16 -128 -16q-93 0 -135.5 38.5t-42.5 114.5l5 64h-6q-83 -126 -172 -176.5t-215 -50.5q-140 0 -227.5 84t-87.5 214zM243 286q0 -75 48.5 -122t125.5 -47q97 0 175 41.5t129 108.5t67 144l27 125l-199 -4q-119 -3 -187 -21.5t-105.5 -47t-59 -72t-21.5 -105.5z M540 1201l3 20l253 287h217l-5 -29l-374 -278h-94z" />
<glyph unicode="&#xe2;" d="M52 278q0 185 132.5 280t422.5 99l232 3q19 98 19 127q0 91 -53 134.5t-147 43.5q-119 0 -180 -42.5t-88 -129.5l-178 29q45 147 156.5 213.5t299.5 66.5q171 0 270.5 -80t99.5 -215q0 -64 -19 -157l-74 -378q-11 -48 -11 -88q0 -73 81 -73q27 0 60 7l-14 -112 q-66 -16 -128 -16q-93 0 -135.5 38.5t-42.5 114.5l5 64h-6q-83 -126 -172 -176.5t-215 -50.5q-140 0 -227.5 84t-87.5 214zM243 286q0 -75 48.5 -122t125.5 -47q97 0 175 41.5t129 108.5t67 144l27 125l-199 -4q-119 -3 -187 -21.5t-105.5 -47t-59 -72t-21.5 -105.5z M342 1201l4 20l286 270h204l171 -270l-4 -20h-92l-186 169h-2l-265 -169h-116z" />
<glyph unicode="&#xe3;" d="M52 278q0 185 132.5 280t422.5 99l232 3q19 98 19 127q0 91 -53 134.5t-147 43.5q-119 0 -180 -42.5t-88 -129.5l-178 29q45 147 156.5 213.5t299.5 66.5q171 0 270.5 -80t99.5 -215q0 -64 -19 -157l-74 -378q-11 -48 -11 -88q0 -73 81 -73q27 0 60 7l-14 -112 q-66 -16 -128 -16q-93 0 -135.5 38.5t-42.5 114.5l5 64h-6q-83 -126 -172 -176.5t-215 -50.5q-140 0 -227.5 84t-87.5 214zM243 286q0 -75 48.5 -122t125.5 -47q97 0 175 41.5t129 108.5t67 144l27 125l-199 -4q-119 -3 -187 -21.5t-105.5 -47t-59 -72t-21.5 -105.5z M329 1201q47 152 107.5 210t143.5 58q44 0 82 -18.5t72.5 -41t65.5 -41t61 -18.5q101 0 141 119h92q-35 -109 -67 -159.5t-77 -79.5t-107 -29q-42 0 -80 18.5t-72.5 41t-66.5 41t-63 18.5q-100 0 -142 -119h-90z" />
<glyph unicode="&#xe4;" d="M52 278q0 185 132.5 280t422.5 99l232 3q19 98 19 127q0 91 -53 134.5t-147 43.5q-119 0 -180 -42.5t-88 -129.5l-178 29q45 147 156.5 213.5t299.5 66.5q171 0 270.5 -80t99.5 -215q0 -64 -19 -157l-74 -378q-11 -48 -11 -88q0 -73 81 -73q27 0 60 7l-14 -112 q-66 -16 -128 -16q-93 0 -135.5 38.5t-42.5 114.5l5 64h-6q-83 -126 -172 -176.5t-215 -50.5q-140 0 -227.5 84t-87.5 214zM243 286q0 -75 48.5 -122t125.5 -47q97 0 175 41.5t129 108.5t67 144l27 125l-199 -4q-119 -3 -187 -21.5t-105.5 -47t-59 -72t-21.5 -105.5z M403 1219l35 184h175l-35 -184h-175zM787 1219l35 184h173l-35 -184h-173z" />
<glyph unicode="&#xe5;" d="M52 278q0 185 132.5 280t422.5 99l232 3q19 98 19 127q0 91 -53 134.5t-147 43.5q-119 0 -180 -42.5t-88 -129.5l-178 29q45 147 156.5 213.5t299.5 66.5q171 0 270.5 -80t99.5 -215q0 -64 -19 -157l-74 -378q-11 -48 -11 -88q0 -73 81 -73q27 0 60 7l-14 -112 q-66 -16 -128 -16q-93 0 -135.5 38.5t-42.5 114.5l5 64h-6q-83 -126 -172 -176.5t-215 -50.5q-140 0 -227.5 84t-87.5 214zM243 286q0 -75 48.5 -122t125.5 -47q97 0 175 41.5t129 108.5t67 144l27 125l-199 -4q-119 -3 -187 -21.5t-105.5 -47t-59 -72t-21.5 -105.5z M491 1410q0 101 71 171t171 70q99 0 170.5 -70.5t71.5 -170.5t-71 -171t-171 -71t-171 71t-71 171zM598 1410q0 -55 38 -96t97 -41q58 0 96 40t38 97q0 58 -38 96t-96 38q-59 0 -97 -39.5t-38 -94.5z" />
<glyph unicode="&#xe6;" horiz-adv-x="1821" d="M32 278q0 185 135.5 279.5t433.5 99.5l238 3q19 98 19 127q0 178 -208 178q-124 0 -187.5 -42t-92.5 -130l-178 29q47 147 162.5 213.5t310.5 66.5q222 0 325 -158q124 158 345 158q195 0 303 -104t108 -290q0 -48 -7.5 -109.5t-15.5 -95.5h-734q-6 -35 -9 -113 q0 -133 61.5 -204t182.5 -71q87 0 157.5 45.5t114.5 133.5l138 -63q-71 -132 -177 -191.5t-255 -59.5q-151 0 -246 70t-130 198q-97 -139 -217 -203.5t-262 -64.5q-95 0 -166.5 38t-110 106.5t-38.5 153.5zM223 286q0 -77 46.5 -123t124.5 -46q101 0 186.5 44.5t143 121 t73.5 162.5l17 89l-206 -4q-147 -4 -227.5 -31t-119 -80.5t-38.5 -132.5zM1013 641h550l4 72q0 124 -59 190t-170 66q-123 0 -207 -85t-118 -243z" />
<glyph unicode="&#xe7;" horiz-adv-x="1024" d="M67 395q0 200 72.5 372t192 253.5t293.5 81.5q169 0 267.5 -85t108.5 -233l-177 -25q-6 97 -60 149.5t-145 52.5q-126 0 -204 -67.5t-121 -214.5t-43 -290q0 -267 218 -267q205 0 289 230l156 -49q-121 -323 -449 -323q-192 0 -295 109t-103 306zM205 -418l21 91 q48 -6 88 -6q91 0 128.5 22t37.5 67q0 72 -119 72q-44 0 -58 -2l101 174h107l-59 -96q81 -5 121.5 -41t40.5 -95q0 -193 -303 -193q-50 0 -106 7z" />
<glyph unicode="&#xe8;" d="M69 405q0 201 71 360.5t200 248t290 88.5q205 0 319 -103t114 -291q0 -105 -24 -205h-783q-6 -35 -9 -113q0 -133 66.5 -204t200.5 -71q97 0 176 48t123 131l138 -63q-73 -131 -185.5 -191t-272.5 -60q-201 0 -312.5 111.5t-111.5 313.5zM280 641h600l4 72 q0 124 -64.5 190t-185.5 66q-134 0 -225.5 -85.5t-128.5 -242.5zM428 1479l5 29h207l161 -287l-3 -20h-88z" />
<glyph unicode="&#xe9;" d="M69 405q0 201 71 360.5t200 248t290 88.5q205 0 319 -103t114 -291q0 -105 -24 -205h-783q-6 -35 -9 -113q0 -133 66.5 -204t200.5 -71q97 0 176 48t123 131l138 -63q-73 -131 -185.5 -191t-272.5 -60q-201 0 -312.5 111.5t-111.5 313.5zM280 641h600l4 72 q0 124 -64.5 190t-185.5 66q-134 0 -225.5 -85.5t-128.5 -242.5zM533 1201l3 20l253 287h217l-5 -29l-374 -278h-94z" />
<glyph unicode="&#xea;" d="M69 405q0 201 71 360.5t200 248t290 88.5q205 0 319 -103t114 -291q0 -105 -24 -205h-783q-6 -35 -9 -113q0 -133 66.5 -204t200.5 -71q97 0 176 48t123 131l138 -63q-73 -131 -185.5 -191t-272.5 -60q-201 0 -312.5 111.5t-111.5 313.5zM280 641h600l4 72 q0 124 -64.5 190t-185.5 66q-134 0 -225.5 -85.5t-128.5 -242.5zM335 1201l4 20l286 270h204l171 -270l-4 -20h-92l-186 169h-2l-265 -169h-116z" />
<glyph unicode="&#xeb;" d="M69 405q0 201 71 360.5t200 248t290 88.5q205 0 319 -103t114 -291q0 -105 -24 -205h-783q-6 -35 -9 -113q0 -133 66.5 -204t200.5 -71q97 0 176 48t123 131l138 -63q-73 -131 -185.5 -191t-272.5 -60q-201 0 -312.5 111.5t-111.5 313.5zM280 641h600l4 72 q0 124 -64.5 190t-185.5 66q-134 0 -225.5 -85.5t-128.5 -242.5zM378 1219l35 184h175l-35 -184h-175zM762 1219l35 184h173l-35 -184h-173z" />
<glyph unicode="&#xec;" horiz-adv-x="569" d="M89 0l210 1082h180l-211 -1082h-179zM126 1479l5 29h207l161 -287l-3 -20h-88z" />
<glyph unicode="&#xed;" horiz-adv-x="569" d="M89 0l210 1082h180l-211 -1082h-179zM262 1201l3 20l253 287h217l-5 -29l-374 -278h-94z" />
<glyph unicode="&#xee;" horiz-adv-x="569" d="M58 1201l4 20l286 270h204l171 -270l-4 -20h-92l-186 169h-2l-265 -169h-116zM89 0l210 1082h180l-211 -1082h-179z" />
<glyph unicode="&#xef;" horiz-adv-x="569" d="M89 0l210 1082h180l-211 -1082h-179zM130 1219l35 184h175l-35 -184h-175zM514 1219l35 184h173l-35 -184h-173z" />
<glyph unicode="&#xf0;" d="M67 403q0 160 64.5 297.5t182.5 208t291 70.5q79 0 151.5 -29.5t107.5 -75.5q-19 113 -63.5 211t-102.5 164l-273 -113l21 120l179 72q-96 90 -195 156h176q77 -39 156 -102l263 102l-19 -108l-169 -67q117 -139 167 -278t50 -303q0 -210 -64.5 -391t-184.5 -266.5 t-314 -85.5q-199 0 -311.5 113t-112.5 305zM251 388q0 -130 63 -200t180 -70q94 0 159 34t109.5 104.5t70.5 183.5t26 195q0 55 -32.5 104t-91.5 78t-132 29q-120 0 -196 -56t-116 -173.5t-40 -228.5z" />
<glyph unicode="&#xf1;" d="M34 0l166 851q20 95 39 231h170q0 -11 -10.5 -77.5t-17.5 -107.5h3q83 115 166.5 159.5t198.5 44.5q148 0 222.5 -73t74.5 -211q0 -64 -21 -164l-127 -653h-181l126 645q18 88 18 150q0 167 -179 167q-126 0 -222 -96t-128 -260l-118 -606h-180zM330 1201 q47 152 107.5 210t143.5 58q44 0 82 -18.5t72.5 -41t65.5 -41t61 -18.5q101 0 141 119h92q-35 -109 -67 -159.5t-77 -79.5t-107 -29q-42 0 -80 18.5t-72.5 41t-66.5 41t-63 18.5q-100 0 -142 -119h-90z" />
<glyph unicode="&#xf2;" d="M73 419q4 204 74 362t194 239t307 81q210 0 321 -109.5t111 -308.5q0 -130 -40 -270.5t-114.5 -238t-182.5 -146t-246 -48.5q-196 0 -310 118t-114 321zM258 416q0 -148 64 -225.5t186 -77.5q103 0 165.5 34.5t109.5 108t76.5 187.5t34.5 240q0 286 -248 286 q-135 0 -216.5 -69.5t-126.5 -210.5t-45 -273zM438 1479l5 29h207l161 -287l-3 -20h-88z" />
<glyph unicode="&#xf3;" d="M73 419q4 204 74 362t194 239t307 81q210 0 321 -109.5t111 -308.5q0 -130 -40 -270.5t-114.5 -238t-182.5 -146t-246 -48.5q-196 0 -310 118t-114 321zM258 416q0 -148 64 -225.5t186 -77.5q103 0 165.5 34.5t109.5 108t76.5 187.5t34.5 240q0 286 -248 286 q-135 0 -216.5 -69.5t-126.5 -210.5t-45 -273zM533 1201l3 20l253 287h217l-5 -29l-374 -278h-94z" />
<glyph unicode="&#xf4;" d="M73 419q4 204 74 362t194 239t307 81q210 0 321 -109.5t111 -308.5q0 -130 -40 -270.5t-114.5 -238t-182.5 -146t-246 -48.5q-196 0 -310 118t-114 321zM258 416q0 -148 64 -225.5t186 -77.5q103 0 165.5 34.5t109.5 108t76.5 187.5t34.5 240q0 286 -248 286 q-135 0 -216.5 -69.5t-126.5 -210.5t-45 -273zM344 1201l4 20l286 270h204l171 -270l-4 -20h-92l-186 169h-2l-265 -169h-116z" />
<glyph unicode="&#xf5;" d="M73 419q4 204 74 362t194 239t307 81q210 0 321 -109.5t111 -308.5q0 -130 -40 -270.5t-114.5 -238t-182.5 -146t-246 -48.5q-196 0 -310 118t-114 321zM258 416q0 -148 64 -225.5t186 -77.5q103 0 165.5 34.5t109.5 108t76.5 187.5t34.5 240q0 286 -248 286 q-135 0 -216.5 -69.5t-126.5 -210.5t-45 -273zM300 1201q47 152 107.5 210t143.5 58q44 0 82 -18.5t72.5 -41t65.5 -41t61 -18.5q101 0 141 119h92q-35 -109 -67 -159.5t-77 -79.5t-107 -29q-42 0 -80 18.5t-72.5 41t-66.5 41t-63 18.5q-100 0 -142 -119h-90z" />
<glyph unicode="&#xf6;" d="M73 419q4 204 74 362t194 239t307 81q210 0 321 -109.5t111 -308.5q0 -130 -40 -270.5t-114.5 -238t-182.5 -146t-246 -48.5q-196 0 -310 118t-114 321zM258 416q0 -148 64 -225.5t186 -77.5q103 0 165.5 34.5t109.5 108t76.5 187.5t34.5 240q0 286 -248 286 q-135 0 -216.5 -69.5t-126.5 -210.5t-45 -273zM390 1219l35 184h175l-35 -184h-175zM774 1219l35 184h173l-35 -184h-173z" />
<glyph unicode="&#xf7;" horiz-adv-x="1124" d="M82 608v146h995v-146h-995zM495 223v183h168v-183h-168zM495 958v183h168v-183h-168z" />
<glyph unicode="&#xf8;" horiz-adv-x="1251" d="M44 -38l157 183q-76 109 -76 274q4 204 74 362t194 239t307 81q162 0 267 -67l70 82h167l-146 -169q74 -103 74 -264q0 -106 -26 -216q-110 -482 -557 -482q-154 0 -258 71l-80 -94h-167zM310 416q0 -73 15 -127l540 627q-63 53 -167 53q-135 0 -216.5 -69.5 t-126.5 -210.5t-45 -273zM392 173q63 -55 168 -55q136 0 213.5 66.5t122 202t50.5 296.5q0 66 -14 117z" />
<glyph unicode="&#xf9;" d="M86 265q0 64 21 164l127 653h181l-126 -645q-18 -88 -18 -150q0 -167 179 -167q126 0 222 96t128 260l118 606h180l-166 -851q-20 -95 -39 -231h-170q0 11 10.5 77.5t17.5 107.5h-3q-83 -115 -166.5 -159.5t-198.5 -44.5q-148 0 -222.5 73t-74.5 211zM452 1479l5 29h207 l161 -287l-3 -20h-88z" />
<glyph unicode="&#xfa;" d="M86 265q0 64 21 164l127 653h181l-126 -645q-18 -88 -18 -150q0 -167 179 -167q126 0 222 96t128 260l118 606h180l-166 -851q-20 -95 -39 -231h-170q0 11 10.5 77.5t17.5 107.5h-3q-83 -115 -166.5 -159.5t-198.5 -44.5q-148 0 -222.5 73t-74.5 211zM541 1201l3 20 l253 287h217l-5 -29l-374 -278h-94z" />
<glyph unicode="&#xfb;" d="M86 265q0 64 21 164l127 653h181l-126 -645q-18 -88 -18 -150q0 -167 179 -167q126 0 222 96t128 260l118 606h180l-166 -851q-20 -95 -39 -231h-170q0 11 10.5 77.5t17.5 107.5h-3q-83 -115 -166.5 -159.5t-198.5 -44.5q-148 0 -222.5 73t-74.5 211zM356 1201l4 20 l286 270h204l171 -270l-4 -20h-92l-186 169h-2l-265 -169h-116z" />
<glyph unicode="&#xfc;" d="M86 265q0 64 21 164l127 653h181l-126 -645q-18 -88 -18 -150q0 -167 179 -167q126 0 222 96t128 260l118 606h180l-166 -851q-20 -95 -39 -231h-170q0 11 10.5 77.5t17.5 107.5h-3q-83 -115 -166.5 -159.5t-198.5 -44.5q-148 0 -222.5 73t-74.5 211zM410 1219l35 184 h175l-35 -184h-175zM794 1219l35 184h173l-35 -184h-173z" />
<glyph unicode="&#xfd;" horiz-adv-x="1024" d="M-116 -411l31 134q45 -8 77 -8q95 0 167.5 64t142.5 186l27 47l-217 1070h183l112 -598q15 -80 28 -170.5t14 -117.5q10 22 26 54t453 832h199l-626 -1082q-111 -193 -178.5 -270.5t-141 -116t-165.5 -38.5q-72 0 -132 14zM503 1201l3 20l253 287h217l-5 -29l-374 -278 h-94z" />
<glyph unicode="&#xfe;" d="M-51 -425l371 1909h180l-83 -423q-8 -46 -34 -140h4q73 95 154 138t200 43q157 0 244.5 -94.5t87.5 -259.5q0 -203 -61.5 -393.5t-173 -282.5t-284.5 -92q-123 0 -200.5 52t-109.5 146h-5q-10 -86 -29 -180l-82 -423h-179zM295 377q0 -125 63.5 -194.5t176.5 -69.5 q124 0 196 75.5t113 240t41 287.5t-47 185t-149 62q-99 0 -169.5 -40.5t-119.5 -122t-77 -204t-28 -219.5z" />
<glyph unicode="&#xff;" horiz-adv-x="1024" d="M-116 -411l31 134q45 -8 77 -8q95 0 167.5 64t142.5 186l27 47l-217 1070h183l112 -598q15 -80 28 -170.5t14 -117.5q10 22 26 54t453 832h199l-626 -1082q-111 -193 -178.5 -270.5t-141 -116t-165.5 -38.5q-72 0 -132 14zM354 1219l35 184h175l-35 -184h-175zM738 1219 l35 184h173l-35 -184h-173z" />
<glyph unicode="&#x152;" horiz-adv-x="2048" d="M101 573q0 246 106.5 440.5t294 300.5t423.5 106q120 0 269 -11h873l-30 -156h-710l-88 -452h650l-30 -154h-650l-95 -491h751l-30 -156h-942q-76 -10 -191 -10q-282 0 -441.5 156t-159.5 427zM292 563q0 -203 109.5 -310.5t310.5 -107.5q129 0 211 11l213 1099 q-84 11 -221 11q-195 0 -334.5 -86t-214 -256t-74.5 -361z" />
<glyph unicode="&#x153;" horiz-adv-x="1933" d="M69 419q4 202 73.5 360.5t193.5 240t306 81.5q281 0 382 -192q76 93 179 143t224 50q204 0 317 -103t113 -291q0 -105 -24 -205h-778q-11 -51 -11 -113q0 -133 66.5 -204t200.5 -71q96 0 173.5 47t122.5 132l138 -63q-74 -133 -186 -192t-269 -59q-268 0 -373 193 q-147 -188 -426 -188q-199 0 -310.5 116t-111.5 318zM254 416q0 -298 248 -298q136 0 213.5 66.5t122 202t50.5 296.5q0 286 -248 286q-135 0 -216 -70.5t-125.5 -211.5t-44.5 -271zM1077 641h597l4 72q0 124 -62.5 190t-184.5 66q-134 0 -225.5 -85.5t-128.5 -242.5z" />
<glyph unicode="&#x178;" horiz-adv-x="1366" d="M213 1409h196l306 -674l560 674h214l-704 -825l-113 -584h-190l115 584zM567 1530l35 184h175l-35 -184h-175zM951 1530l35 184h173l-35 -184h-173z" />
<glyph unicode="&#x2c6;" horiz-adv-x="682" d="M77 1201l4 20l286 270h204l171 -270l-4 -20h-92l-186 169h-2l-265 -169h-116z" />
<glyph unicode="&#x2dc;" horiz-adv-x="682" d="M53 1201q47 152 107.5 210t143.5 58q44 0 82 -18.5t72.5 -41t65.5 -41t61 -18.5q101 0 141 119h92q-35 -109 -67 -159.5t-77 -79.5t-107 -29q-42 0 -80 18.5t-72.5 41t-66.5 41t-63 18.5q-100 0 -142 -119h-90z" />
<glyph unicode="&#x2000;" horiz-adv-x="899" />
<glyph unicode="&#x2001;" horiz-adv-x="1798" />
<glyph unicode="&#x2002;" horiz-adv-x="899" />
<glyph unicode="&#x2003;" horiz-adv-x="1798" />
<glyph unicode="&#x2004;" horiz-adv-x="599" />
<glyph unicode="&#x2005;" horiz-adv-x="449" />
<glyph unicode="&#x2006;" horiz-adv-x="299" />
<glyph unicode="&#x2007;" horiz-adv-x="299" />
<glyph unicode="&#x2008;" horiz-adv-x="224" />
<glyph unicode="&#x2009;" horiz-adv-x="359" />
<glyph unicode="&#x200a;" horiz-adv-x="99" />
<glyph unicode="&#x2010;" horiz-adv-x="682" d="M105 464l31 160h500l-31 -160h-500z" />
<glyph unicode="&#x2011;" horiz-adv-x="682" d="M105 464l31 160h500l-31 -160h-500z" />
<glyph unicode="&#x2012;" horiz-adv-x="682" d="M105 464l31 160h500l-31 -160h-500z" />
<glyph unicode="&#x2013;" d="M-13 451l26 137h1138l-27 -137h-1137z" />
<glyph unicode="&#x2014;" horiz-adv-x="2048" d="M-13 451l26 137h2048l-27 -137h-2047z" />
<glyph unicode="&#x2018;" horiz-adv-x="455" d="M199 952l28 146q18 96 51.5 169t89.5 142h121q-121 -135 -146 -262h89l-38 -195h-195z" />
<glyph unicode="&#x2019;" horiz-adv-x="455" d="M192 952q119 136 145 260h-88l38 197h195l-28 -145q-18 -95 -51 -169.5t-88 -142.5h-123z" />
<glyph unicode="&#x201a;" horiz-adv-x="455" d="M-6 -260q119 136 145 260h-88l38 197h195l-28 -145q-18 -93 -50.5 -168t-88.5 -144h-123z" />
<glyph unicode="&#x201c;" horiz-adv-x="682" d="M148 952l28 146q18 96 51.5 169t89.5 142h121q-121 -135 -146 -262h89l-38 -195h-195zM480 952l28 146q18 93 50.5 168t88.5 143h122q-120 -137 -145 -262h88l-38 -195h-194z" />
<glyph unicode="&#x201d;" horiz-adv-x="682" d="M137 952q120 137 145 262h-88l38 195h195l-28 -145q-18 -95 -51 -169.5t-88 -142.5h-123zM469 952q120 137 145 262h-88l38 195h194l-28 -145q-18 -93 -49.5 -166t-90.5 -146h-121z" />
<glyph unicode="&#x201e;" horiz-adv-x="682" d="M-71 -262q120 137 145 262h-88l38 195h195l-28 -145q-18 -93 -50.5 -168t-88.5 -144h-123zM261 -262q120 137 145 262h-88l38 195h194l-28 -145q-17 -91 -48.5 -164.5t-91.5 -147.5h-121z" />
<glyph unicode="&#x2022;" horiz-adv-x="717" d="M97 682q0 115 81 194.5t193 79.5q115 0 198 -79.5t83 -194.5q0 -117 -83.5 -199t-197.5 -82q-111 0 -192.5 82t-81.5 199z" />
<glyph unicode="&#x2026;" horiz-adv-x="2048" d="M186 0l43 219h195l-43 -219h-195zM837 0l43 219h192l-43 -219h-192zM1484 0l43 219h194l-43 -219h-194z" />
<glyph unicode="&#x202f;" horiz-adv-x="359" />
<glyph unicode="&#x2039;" horiz-adv-x="682" d="M86 506l12 63l408 371h157l-9 -40l-407 -372l265 -367l-2 -20h-159z" />
<glyph unicode="&#x203a;" horiz-adv-x="682" d="M16 141l8 39l410 367l-264 372l3 21h156l265 -371l-12 -63l-408 -365h-158z" />
<glyph unicode="&#x205f;" horiz-adv-x="449" />
<glyph unicode="&#x20ac;" d="M19 502l64 129h112q4 50 13.5 103.5t12.5 60.5h-146l65 127h113q78 257 225.5 382t352.5 126q164 0 266.5 -77.5t130.5 -226.5l-171 -35q-54 188 -232 192h-9q-102 0 -169 -37.5t-121.5 -116t-92.5 -207.5h464l-65 -127h-430q-19 -96 -25 -164h463l-65 -129h-404 q2 -184 68.5 -280.5t190.5 -96.5q106 0 172.5 52.5t108.5 149.5l152 -48q-60 -146 -172.5 -221.5t-271.5 -75.5q-199 0 -312 136t-117 384h-171z" />
<glyph unicode="&#x2122;" horiz-adv-x="2048" d="M188 1298v111h650v-111h-261v-664h-134v664h-255zM963 634v775h190l223 -563l15 -42l74 192l168 413h184v-775h-126v619l-8 -22l-242 -597h-108l-163 413l-77 206l-2 -36v-583h-128z" />
<glyph unicode="&#x25fc;" horiz-adv-x="1080" d="M0 0v1080h1080v-1080h-1080z" />
<glyph unicode="&#xfb01;" horiz-adv-x="1024" d="M69 0l185 951h-152l26 131h152l23 122q23 112 60.5 167.5t99.5 84t159 28.5q74 0 124 -12l-26 -137l-45 6l-46 2q-63 0 -96.5 -32.5t-53.5 -131.5l-19 -97h211l-26 -131h-211l-185 -951h-180zM602 0l210 1082h180l-211 -1082h-179zM856 1312l34 172h180l-34 -172h-180z " />
<glyph unicode="&#xfb02;" horiz-adv-x="1024" d="M69 0l185 951h-152l26 131h152l23 122q23 112 60.5 167.5t99.5 84t159 28.5q74 0 124 -12l-26 -137l-45 6l-46 2q-63 0 -96.5 -32.5t-53.5 -131.5l-19 -97h211l-26 -131h-211l-185 -951h-180zM602 0l288 1484h180l-289 -1484h-179z" />
</font>
</defs>
</svg>
