<?xml version="1.0" standalone="no"?>
<!DOCTYPE svg PUBLIC "-//W3C//DTD SVG 1.1//EN" "http://www.w3.org/Graphics/SVG/1.1/DTD/svg11.dtd">
<svg xmlns="http://www.w3.org/2000/svg">
<defs >
<font id="Cambay" horiz-adv-x="472" ><font-face
    font-family="Cambay"
    units-per-em="800"
    panose-1="0 0 8 0 0 0 0 0 0 0"
    ascent="800"
    descent="-503"
    alphabetic="0" />
<glyph unicode=" " glyph-name="space" horiz-adv-x="220" />
<glyph unicode="!" glyph-name="exclam" horiz-adv-x="297" d="M180 90H110L180 493H267L180 90ZM105 -57T93 -45T80 -13Q80 10 95 25T133 41Q152 41 164 29T177 -2Q177 -11 176 -15Q173 -33 158 -45T124 -57Q105 -57 93 -45Z" />
<glyph unicode="&quot;" glyph-name="quotedbl" horiz-adv-x="296" d="M51 517Q52 537 63 551T97 565Q117 565 126 555T136 527Q136 516 134 511L90 375H40L51 517ZM171 517Q172 537 183 551T217 565Q237 565 246 555T256 527Q256 516 254 511L210 375H160L171 517Z" />
<glyph unicode="#" glyph-name="numbersign" horiz-adv-x="573" d="M73 357L59 285H173L153 179H40L26 107H139L111 -37H186L214 107H303L275 -37H351L379 107H499L513 179H393L413 285H533L547 357H427L454 494H378L351 357H262L289 494H214L187 357H73ZM337
285L317 179H228L248 285H337Z" />
<glyph unicode="$" glyph-name="dollar" horiz-adv-x="421" d="M166 327T183 315T235 287Q289 262 319 238T349 172Q349 133 324 98T226 54L206 -47H126L146 53Q111 56 82 65T20 89L57 159Q131 130 168 130Q258 130 258 167Q258 180 243 190T194 215Q155 233 132
247T91 284T73 338Q73 381 103 412T227 449L243 530H323L306 445Q353 436 382 422L341 353Q311 362 290 367T241 372Q194 372 180 365T166 342Q166 327 183 315Z" />
<glyph unicode="%" glyph-name="percent" horiz-adv-x="514" d="M504 466H419L10 0H94L504 466ZM243 413T220 439T159 466Q95 466 64 424T32 326Q32 289 54 263T117 237Q179 237 211 279T243 377Q243 413 220 439ZM161 401T168 392T176 365Q176 346 164 325T129
303Q116 303 108 311T99 336Q99 358 111 379T146 401Q161 401 168 392ZM479 176T456 202T396 229Q332 229 300 187T268 89Q268 52 291 26T354 0Q416 0 447 42T479 140Q479 176 456 202ZM398 164T405 155T413 128Q413 109 401 88T366 66Q353 66 345 74T336 99Q336
121 348 142T383 164Q398 164 405 155Z" />
<glyph unicode="&amp;" glyph-name="ampersand" horiz-adv-x="574" d="M520 0H419L367 76Q360 70 325 41T255 -3T184 -18Q124 -18 87 13T50 96Q50 136 63 168T108 235T200 313Q174 354 163 378T151 435Q151 490 191 529T310 568Q360 568 394 542T428 472Q428 430
403 395T309 307L386 194L492 288L539 231L429 132L520 0ZM241 438T241 432Q241 416 247 400T269 361Q335 408 335 449Q335 465 325 475T294 485Q273 485 260 476T243 452Q241 438 241 432ZM218 66T236 74T270 93T325 138L242 260Q200 226 180 208T149 167T137
117Q137 92 152 79T196 66Q218 66 236 74Z" />
<glyph unicode="&apos;" glyph-name="quotesingle" horiz-adv-x="176" d="M51 517Q52 537 63 551T97 565Q117 565 126 555T136 527Q136 516 134 511L90 375H40L51 517Z" />
<glyph unicode="(" glyph-name="parenleft" horiz-adv-x="338" d="M134 14T172 -127L114 -151Q88 -90 71 -10T53 147Q53 266 104 373T257 606L308 570Q223 459 179 354T134 142Q134 14 172 -127Z" />
<glyph unicode=")" glyph-name="parenright" horiz-adv-x="338" d="M204 433T166 574L224 598Q250 537 267 457T285 300Q285 181 234 74T81 -159L30 -123Q115 -12 159 93T204 305Q204 433 166 574Z" />
<glyph unicode="*" glyph-name="asterisk" horiz-adv-x="487" d="M222 434L144 513L77 425L185 383L60 339L91 253L202 331L159 209H258L264 331L341 252L410 338L303 380L427 425L394 513L285 434L325 557H226L222 434Z" />
<glyph unicode="+" glyph-name="plus" horiz-adv-x="464" d="M191 412V269H50V185H191V41H273V185H414V269H273V412H191Z" />
<glyph unicode="," glyph-name="comma" horiz-adv-x="239" d="M95 -8Q80 -3 71 10T61 42Q61 68 80 85T124 103Q147 103 160 88T173 46Q173 39 171 23Q164 -12 136 -43T61 -116L30 -93L95 -8Z" />
<glyph unicode="-" glyph-name="hyphen" horiz-adv-x="339" d="M276 180H30L43 247H289L276 180Z" />
<glyph unicode="." glyph-name="period" horiz-adv-x="184" d="M64 -11T50 4T35 42Q35 69 52 86T98 103Q120 103 134 88T149 50Q149 23 132 6T86 -11Q64 -11 50 4Z" />
<glyph unicode="/" glyph-name="slash" horiz-adv-x="446" d="M88 -55L416 570H333L5 -55H88Z" />
<glyph unicode="0" glyph-name="zero" horiz-adv-x="435" d="M338 469T376 423T415 299Q415 233 391 162T312 41T177 -8Q98 -8 59 39T20 166Q20 232 44 302T123 420T259 469Q338 469 376 423ZM232 68T265 106T314 197T329 302Q329 343 311 367T253 391Q203 391
170 355T122 268T106 167Q106 68 180 68Q232 68 265 106Z" />
<glyph unicode="1" glyph-name="one" horiz-adv-x="291" d="M281 70L267 0H10L24 70H105L167 390L86 359L70 425L174 466H268L191 70H281Z" />
<glyph unicode="2" glyph-name="two" horiz-adv-x="396" d="M108 450T146 462T232 475Q292 475 331 444T370 358Q370 320 349 283T279 197T138 75H334L319 0H20V73L48 94Q135 160 181 199T257 276T286 350Q286 370 270 383T221 397Q190 397 164 388T117 369T89
355L67 430Q108 450 146 462Z" />
<glyph unicode="3" glyph-name="three" horiz-adv-x="428" d="M323 476T358 448T393 371Q393 357 390 340Q383 306 360 278T301 233Q370 211 370 145Q370 132 367 117Q355 54 307 22T187 -10Q141 -10 104 0T28 30L66 104Q102 87 128 79T182 70Q272 70 285 134Q286
139 286 148Q286 174 260 184T172 195H161L173 271Q239 271 269 292T306 349Q307 353 307 359Q307 379 292 386T255 394Q210 394 129 360L108 439Q195 476 261 476Q323 476 358 448Z" />
<glyph unicode="4" glyph-name="four" horiz-adv-x="405" d="M395 175L381 101H307L288 -1H207L225 101H15V159L278 466H374L321 175H395ZM126 175H238L274 355L126 175Z" />
<glyph unicode="5" glyph-name="five" horiz-adv-x="426" d="M165 228T134 224T95 218L80 228L126 466H406L392 394H192L173 303Q194 305 218 305Q290 305 326 272T363 181Q363 159 359 140Q344 61 289 26T158 -9Q92 -9 20 17L52 91Q82 81 105 76T154 70Q211 70
241 91T280 157Q282 169 282 173Q282 228 189 228Q165 228 134 224Z" />
<glyph unicode="6" glyph-name="six" horiz-adv-x="389" d="M52 339T137 407T364 476L363 401Q178 402 128 268Q169 287 222 287Q281 287 318 257T356 170Q356 159 352 135Q340 70 291 30T165 -10Q92 -10 57 29T22 141Q22 175 30 218Q52 339 137 407ZM275 160T275
164Q275 210 213 210Q155 210 104 181Q101 163 101 148Q101 107 120 87T173 67Q212 67 238 88T273 148Q275 160 275 164Z" />
<glyph unicode="7" glyph-name="seven" horiz-adv-x="375" d="M111 0H20L252 391H50L65 466H355V407L111 0Z" />
<glyph unicode="8" glyph-name="eight" horiz-adv-x="405" d="M309 475T342 448T375 377Q375 343 363 319T336 281T294 248Q324 229 340 205T356 149Q356 137 353 123Q341 64 294 27T172 -10Q104 -10 67 22T29 104Q29 118 32 131Q40 172 65 200T134 255Q115 274
104 292T92 342Q92 354 95 367Q104 412 147 443T252 475Q309 475 342 448ZM217 402T193 384T168 337Q168 304 213 276Q248 294 269 312T297 360Q301 380 287 391T248 402Q217 402 193 384ZM217 62T245 84T280 140Q281 144 281 152Q281 178 262 192T212 218Q171
207 142 182T105 123Q104 119 104 111Q104 89 121 76T174 62Q217 62 245 84Z" />
<glyph unicode="9" glyph-name="nine" horiz-adv-x="409" d="M307 476T344 436T381 322Q381 290 373 248Q355 158 316 101T205 16T22 -10L26 66L54 65Q150 65 200 96T272 186Q232 169 176 169Q119 169 83 203T46 295Q46 305 50 331Q63 397 109 436T231 476Q307
476 344 436ZM126 304T126 299Q126 275 140 261T185 246Q242 246 293 274Q298 302 298 318Q298 359 279 378T226 398Q187 398 161 378T128 318Q126 304 126 299Z" />
<glyph unicode=":" glyph-name="colon" horiz-adv-x="279" d="M135 217T122 231T108 267Q108 293 124 309T167 325Q188 325 201 311T215 275Q215 249 200 233T155 217Q135 217 122 231ZM91 -11T78 3T64 39Q64 65 80 81T123 97Q144 97 157 83T171 47Q171 21 156
5T111 -11Q91 -11 78 3Z" />
<glyph unicode=";" glyph-name="semicolon" horiz-adv-x="306" d="M162 217T149 231T135 267Q135 293 151 309T194 325Q215 325 228 311T242 275Q242 249 227 233T182 217Q162 217 149 231ZM122 -8Q108 -3 100 8T91 37Q91 65 107 81T150 97Q173 97 185 84T198
47Q198 5 168 -33T87 -116L57 -93L122 -8Z" />
<glyph unicode="&lt;" glyph-name="less" horiz-adv-x="428" d="M380 42V126L132 240L380 355V439L40 272V208L380 42Z" />
<glyph unicode="=" glyph-name="equal" horiz-adv-x="534" d="M464 265V342H70V265H464ZM464 107V184H70V107H464Z" />
<glyph unicode="&gt;" glyph-name="greater" horiz-adv-x="428" d="M48 355L296 240L48 126V42L388 208V272L48 439V355Z" />
<glyph unicode="?" glyph-name="question" horiz-adv-x="421" d="M391 438T346 470T233 502Q191 502 158 494T76 466L88 385Q156 418 213 418Q255 418 275 402T296 361Q295 321 229 272Q190 243 169 224T126 171T95 89L92 76H184L188 95Q196 136 215 158T270 207Q277
213 291 223Q327 251 344 267T376 310T391 368Q391 438 346 470ZM97 -78T84 -64T70 -29Q70 -4 87 14T130 32Q152 32 165 18T179 -17Q179 -42 162 -60T119 -78Q97 -78 84 -64Z" />
<glyph unicode="@" glyph-name="at" horiz-adv-x="810" d="M542 358Q516 369 493 375T442 381Q365 381 313 345T236 254T210 141Q210 73 251 32T357 -10Q425 -10 484 42Q501 -10 567 -10Q675 -10 720 79T770 288Q771 366 736 423T633 512T468 543Q332 543 235
479T89 317T40 121Q40 38 77 -26T178 -125T314 -161Q349 -161 381 -156T454 -139L475 -63Q417 -82 349 -82Q252 -82 193 -27T134 127Q134 204 172 282T286 411T466 463Q570 463 625 415T681 273Q681 234 671 184T639 97T587 60Q551 60 551 106Q551 119 554 135L601
377H550L542 358ZM470 312T502 296L468 104Q431 66 378 66Q341 66 321 89T301 154Q301 191 314 227T356 287T428 312Q470 312 502 296Z" />
<glyph unicode="A" glyph-name="A" horiz-adv-x="536" d="M-25 0H77L157 145H363L391 0H486L382 550H286L-25 0ZM208 233L317 439L350 233H208Z" />
<glyph unicode="B" glyph-name="B" horiz-adv-x="540" d="M30 0H221Q377 0 430 56T484 181Q484 218 461 247T391 287Q490 343 490 430Q490 458 474 485T416 531T307 550H137L30 0ZM389 465T389 405Q389 368 364 346T265 324H191L218 465H286Q389 465 389 405ZM386
242T386 170Q386 127 349 107T212 86H145L175 241L236 242Q386 242 386 170Z" />
<glyph unicode="C" glyph-name="C" horiz-adv-x="560" d="M270 555T192 509T77 386T40 223Q40 160 68 107T151 23T281 -9Q333 -9 376 0T472 28L456 107Q367 78 304 78Q230 78 187 122T144 240Q144 295 169 348T246 435T371 469Q406 469 434 465T494 449L540 521Q505
538 468 546T385 555Q270 555 192 509Z" />
<glyph unicode="D" glyph-name="D" horiz-adv-x="614" d="M30 0H157Q368 0 471 79T574 328Q574 381 548 432T464 516T316 550H137L30 0ZM389 462T428 424T468 315Q468 211 411 150T212 89H145L218 462H305Q389 462 428 424Z" />
<glyph unicode="E" glyph-name="E" horiz-adv-x="518" d="M391 0L408 89H145L174 235H397L414 324H191L218 462H471L488 550H137L30 0H391Z" />
<glyph unicode="F" glyph-name="F" horiz-adv-x="503" d="M466 462L483 550H137L30 0H128L169 209H386L403 299H186L218 462H466Z" />
<glyph unicode="G" glyph-name="G" horiz-adv-x="597" d="M372 -9T271 -9Q201 -9 149 22T68 107T40 223Q40 310 77 386T192 508T385 555Q434 555 474 545T552 516L506 444Q470 457 439 463T371 469Q298 469 247 435T170 348T144 240Q144 162 185 120T294 78Q353
78 404 94L426 220H279L295 302H532L482 39Q372 -9 271 -9Z" />
<glyph unicode="H" glyph-name="H" horiz-adv-x="628" d="M456 319H190L235 550H137L30 0H128L173 230H439L394 0H491L598 550H501L456 319Z" />
<glyph unicode="I" glyph-name="I" horiz-adv-x="265" d="M30 0H128L235 550H137L30 0Z" />
<glyph unicode="J" glyph-name="J" horiz-adv-x="424" d="M238 196Q229 149 202 116T102 83Q72 83 32 93L0 8Q45 -7 93 -7Q211 -7 263 44T331 177L404 550H307L238 196Z" />
<glyph unicode="K" glyph-name="K" horiz-adv-x="561" d="M134 550L30 0H125L232 550H134ZM361 0H470L299 278L566 550H460L188 284L361 0Z" />
<glyph unicode="L" glyph-name="L" horiz-adv-x="457" d="M30 0H390L407 89H145L232 550H137L30 0Z" />
<glyph unicode="M" glyph-name="M" horiz-adv-x="719" d="M30 0H124L204 415L290 141H375L565 415L485 0H582L689 550H552L346 249L258 550H133L30 0Z" />
<glyph unicode="N" glyph-name="N" horiz-adv-x="640" d="M30 0H128L203 419L392 0H506L610 550H514L435 132L249 550H131L30 0Z" />
<glyph unicode="O" glyph-name="O" horiz-adv-x="635" d="M595 236T560 160T453 37T281 -10Q201 -10 147 22T66 108T40 223Q40 310 76 385T184 508T360 555Q433 555 486 522T567 436T595 322Q595 236 560 160ZM360 78T403 113T469 200T491 305Q491 377 450 421T337
467Q275 467 232 432T166 345T144 240Q144 162 182 120T298 78Q360 78 403 113Z" />
<glyph unicode="P" glyph-name="P" horiz-adv-x="542" d="M30 0H128L167 212L228 211Q375 212 446 259T517 410Q517 487 455 518T310 550H137L30 0ZM287 462Q345 462 379 448T413 394Q413 344 375 323T250 302H190L218 462H287Z" />
<glyph unicode="Q" glyph-name="Q" horiz-adv-x="635" d="M595 255T574 194T510 86L560 29L489 -29L439 28Q369 -10 281 -10Q201 -10 147 22T66 108T40 223Q40 310 76 385T184 508T360 555Q433 555 486 522T567 436T595 322Q595 255 574 194ZM342 78T378 97L293
194L362 253L446 158Q468 190 479 229T491 305Q491 377 450 421T337 467Q275 467 232 432T166 345T144 240Q144 162 182 120T298 78Q342 78 378 97Z" />
<glyph unicode="R" glyph-name="R" horiz-adv-x="557" d="M30 0H128L167 215Q197 213 208 213Q246 213 261 214L345 0H453L358 227Q517 278 517 404Q517 483 457 516T320 550H137L30 0ZM287 462Q345 462 379 448T413 395Q413 344 372 323T240 301Q207 301 190
304L218 462H287Z" />
<glyph unicode="S" glyph-name="S" horiz-adv-x="539" d="M365 463T396 455T463 432L514 518Q481 533 443 544T354 555Q271 555 216 530T135 463T108 374Q108 335 129 309T180 267T259 233Q311 213 335 199T360 159Q364 142 348 125T301 96T227 85Q193 85 157
92T68 121L20 34Q114 -9 212 -9Q310 -9 366 19T444 88T466 171Q466 209 444 235T391 278T312 314Q261 334 237 350T212 390Q212 418 243 440T329 463Q365 463 396 455Z" />
<glyph unicode="T" glyph-name="T" horiz-adv-x="489" d="M50 462H230L140 0H238L328 462H502L519 550H67L50 462Z" />
<glyph unicode="U" glyph-name="U" horiz-adv-x="594" d="M344 -9T399 26T472 103T501 202L569 550H471L403 201Q391 140 355 111T244 82Q189 82 167 103T145 164Q145 187 149 207L216 550H119L52 206Q47 183 47 155Q47 87 89 39T239 -9Q344 -9 399 26Z" />
<glyph unicode="V" glyph-name="V" horiz-adv-x="547" d="M164 0H287L567 550H464L240 105L172 550H72L164 0Z" />
<glyph unicode="W" glyph-name="W" horiz-adv-x="862" d="M132 0H233L446 423L481 0H593L882 550H779L559 128L523 550H409L206 128L169 550H72L132 0Z" />
<glyph unicode="X" glyph-name="X" horiz-adv-x="562" d="M497 0H386L285 211L101 1H-20L242 300L121 550H228L311 379L461 550H582L355 291L497 0Z" />
<glyph unicode="Y" glyph-name="Y" horiz-adv-x="518" d="M190 249L143 0H241L287 242L553 550H445L255 337L155 550H55L190 249Z" />
<glyph unicode="Z" glyph-name="Z" horiz-adv-x="548" d="M116 462H376L20 61V0H435L452 86H162L528 491V550H133L116 462Z" />
<glyph unicode="[" glyph-name="bracketleft" horiz-adv-x="443" d="M202 611H390L375 536H268L149 -79H256L241 -154H53L202 611Z" />
<glyph unicode="\" glyph-name="backslash" horiz-adv-x="192" d="M114 -55H187L104 570H32L114 -55Z" />
<glyph unicode="]" glyph-name="bracketright" horiz-adv-x="443" d="M175 -79L294 536H187L202 611H390L241 -154H53L68 -79H175Z" />
<glyph unicode="^" glyph-name="asciicircum" horiz-adv-x="434" d="M89 362L235 485L332 360L394 410L249 598L40 421L89 362Z" />
<glyph unicode="_" glyph-name="underscore" horiz-adv-x="463" d="M392 -83L403 -25H71L60 -83H392Z" />
<glyph unicode="`" glyph-name="grave" horiz-adv-x="244" d="M160 418L210 463L64 630L-2 570L160 418Z" />
<glyph unicode="a" glyph-name="a" horiz-adv-x="420" d="M210 390T170 382T98 364L95 300Q165 318 211 318Q255 318 273 305T292 262Q292 255 288 229H215Q118 229 74 189T29 87Q29 47 59 19T142 -9Q205 -9 262 31L266 0H343L381 228Q386 256 386 277Q386 331
354 360T244 390Q210 390 170 382ZM245 71T228 67T182 63Q155 63 141 75T126 108Q126 135 145 151T208 167H280L267 81Q245 71 228 67Z" />
<glyph unicode="b" glyph-name="b" horiz-adv-x="483" d="M37 0H104L119 26Q141 12 171 2T234 -9Q310 -9 359 27T430 118T453 227Q453 278 432 315T375 371T301 390Q249 390 208 373L240 550H144L37 0ZM301 315T327 294T353 225Q353 157 320 112T217 66Q180 66
146 84L190 303Q208 310 223 312T258 315Q301 315 327 294Z" />
<glyph unicode="c" glyph-name="c" horiz-adv-x="405" d="M297 315T318 311T363 298L405 361Q347 390 278 390Q191 390 135 354T54 262T29 151Q29 81 72 36T190 -10Q238 -10 275 -2T351 21L337 88Q302 77 280 72T231 66Q184 66 158 93T132 166Q132 200 146 234T191
292T269 315Q297 315 318 311Z" />
<glyph unicode="d" glyph-name="d" horiz-adv-x="473" d="M353 375Q334 382 308 386T258 390Q187 390 136 358T57 272T30 157Q30 112 49 74T105 14T188 -9Q250 -9 300 23L304 0H374L478 550H385L353 375ZM312 315T341 301L302 83Q288 75 269 71T230 66Q184 66
158 87T132 161Q132 223 165 269T265 315Q312 315 341 301Z" />
<glyph unicode="e" glyph-name="e" horiz-adv-x="424" d="M185 390T135 356T58 266T30 146Q30 79 72 35T195 -10Q263 -10 339 14V77Q293 66 233 66Q181 66 153 83T125 141Q125 151 126 156L382 153L390 193Q395 217 395 246Q395 314 357 352T248 390Q185 390 135
356ZM267 315T287 297T307 244Q307 232 304 217H133Q144 263 173 289T235 315Q267 315 287 297Z" />
<glyph unicode="f" glyph-name="f" horiz-adv-x="327" d="M50 384L35 309H109L53 0H144L201 309H337L352 384H219L226 420Q231 450 251 464T316 478Q353 478 392 465L422 534Q364 554 319 554Q251 554 212 536T156 487T129 411L124 384H50Z" />
<glyph unicode="g" glyph-name="g" horiz-adv-x="492" d="M291 -38T276 -68T232 -113T151 -129Q122 -129 101 -125T40 -108L10 -183Q55 -198 88 -203T156 -209Q350 -209 389 -6L465 384H399L386 361Q367 373 335 381T269 390Q199 390 149 358T72 271T46 153Q46
109 66 72T122 13T204 -9Q250 -9 301 12Q291 -38 276 -68ZM320 314T356 297L316 83Q287 66 246 66Q202 66 175 92T148 165Q148 230 181 272T281 314Q320 314 356 297Z" />
<glyph unicode="h" glyph-name="h" horiz-adv-x="483" d="M340 309T340 254Q340 242 337 228L293 0H389L430 211Q438 255 438 279Q438 389 320 389Q289 389 264 382T206 363L240 550H144L37 0H133L186 289Q241 309 279 309Q340 309 340 254Z" />
<glyph unicode="i" glyph-name="i" horiz-adv-x="231" d="M30 0H126L201 384H105L30 0ZM138 449T124 464T109 504Q109 533 128 552T176 571Q200 571 215 556T230 516Q230 489 210 469T162 449Q138 449 124 464Z" />
<glyph unicode="j" glyph-name="j" horiz-adv-x="238" d="M39 0Q30 -47 17 -72T-16 -112T-72 -145L-44 -212Q19 -188 52 -164T102 -109T128 -26L208 384H114L39 0ZM146 449T132 464T117 504Q117 533 136 552T184 571Q208 571 223 556T238 516Q238 489 218 469T170
449Q146 449 132 464Z" />
<glyph unicode="k" glyph-name="k" horiz-adv-x="452" d="M144 550L37 0H133L240 550H144ZM184 211L294 0H402L293 201L462 384H350L184 211Z" />
<glyph unicode="l" glyph-name="l" horiz-adv-x="245" d="M135 66T135 105Q135 117 138 130L219 550H125L37 96Q33 72 33 60Q33 -9 110 -9Q141 -9 161 -4T202 11L219 72Q197 66 174 66Q135 66 135 105Z" />
<glyph unicode="m" glyph-name="m" horiz-adv-x="700" d="M105 384L30 0H125L178 288Q237 308 264 308Q318 308 318 255Q318 241 315 227L271 0H367L409 217Q415 247 415 270Q415 282 414 288Q448 299 467 303T504 308Q533 308 544 292T556 251Q556 241 554 227L510
0H605L644 198Q654 248 654 283Q654 389 555 389Q517 389 477 376T397 347Q381 369 365 379T316 389Q287 389 259 382T211 366T182 355L174 384H105Z" />
<glyph unicode="n" glyph-name="n" horiz-adv-x="478" d="M334 309T334 252Q334 244 332 228L288 0H384L425 211Q432 250 432 277Q432 328 406 358T313 389Q282 389 256 382T210 366T183 355L175 384H106L30 0H126L179 289Q234 309 272 309Q334 309 334 252Z" />
<glyph unicode="o" glyph-name="o" horiz-adv-x="462" d="M275 -9T328 26T407 114T432 222Q432 268 412 306T353 367T265 390Q185 390 132 355T55 268T30 159Q30 114 50 76T109 14T196 -9Q275 -9 328 26ZM286 315T309 291T332 220Q332 158 301 113T211 67Q174
67 152 91T129 161Q129 199 143 234T185 292T249 315Q286 315 309 291Z" />
<glyph unicode="p" glyph-name="p" horiz-adv-x="476" d="M105 384L-10 -206H86L126 10Q166 -9 212 -9Q296 -9 348 27T423 117T446 227Q446 279 425 316T372 371T306 390Q267 390 238 381T180 357L173 384H105ZM347 314T347 220Q347 151 314 109T211 66Q175 66
146 87L184 301Q216 314 255 314Q347 314 347 220Z" />
<glyph unicode="q" glyph-name="q" horiz-adv-x="478" d="M351 373T319 381T253 390Q183 390 133 357T56 270T30 152Q30 111 49 74T103 14T188 -9Q215 -9 235 -5T278 9L239 -206H335L450 384H383L370 361Q351 373 319 381ZM303 314T334 299L296 83Q267 66 220
66Q182 66 157 88T132 157Q132 224 164 269T265 314Q303 314 334 299Z" />
<glyph unicode="r" glyph-name="r" horiz-adv-x="356" d="M105 384L30 0H124L180 297Q200 304 223 304Q248 304 273 296T319 275L326 278L368 376Q340 390 304 390Q244 390 182 354L174 384H105Z" />
<glyph unicode="s" glyph-name="s" horiz-adv-x="407" d="M59 11T96 1T181 -9Q279 -9 314 28T349 112Q349 153 319 177T235 227Q200 243 183 255T166 282Q166 297 180 304T241 312Q268 312 289 307T341 293L382 362Q360 372 323 381T255 390Q145 390 109 357T73
278Q73 247 90 224T131 187T194 155Q228 140 243 130T258 107Q258 70 168 70Q131 70 57 99L20 29Q59 11 96 1Z" />
<glyph unicode="t" glyph-name="t" horiz-adv-x="338" d="M252 69T222 69Q163 69 163 112Q163 118 165 128L200 309H313L328 384H215L236 494H140L119 384H45L30 309H104L71 138Q65 102 65 84Q65 41 89 16T175 -9Q207 -9 232 -3T291 14L296 80Q252 69 222 69Z" />
<glyph unicode="u" glyph-name="u" horiz-adv-x="468" d="M363 -1L438 384H344L289 94Q248 73 204 73Q142 73 142 129Q142 143 145 155L190 384H95L57 189Q56 185 52 159T47 105Q47 -9 153 -9Q188 -9 218 0T288 28L296 -1H363Z" />
<glyph unicode="v" glyph-name="v" horiz-adv-x="417" d="M322 384L177 101L139 384H40L112 0H212L427 384H322Z" />
<glyph unicode="w" glyph-name="w" horiz-adv-x="655" d="M164 105L136 384H40L99 0H195L335 272L365 0H467L665 384H565L432 105L405 384H300L164 105Z" />
<glyph unicode="x" glyph-name="x" horiz-adv-x="440" d="M374 0H270L211 112L111 1H0L170 190L69 384H166L233 261L343 384H455L275 183L374 0Z" />
<glyph unicode="y" glyph-name="y" horiz-adv-x="444" d="M126 -11L12 -206H104L454 384H354L189 89L131 384H40L126 -11Z" />
<glyph unicode="z" glyph-name="z" horiz-adv-x="415" d="M77 300H247L30 49V0H333L349 81H171L390 333V384H94L77 300Z" />
<glyph unicode="{" glyph-name="braceleft" horiz-adv-x="380" d="M81 261T112 285T150 350L165 427Q181 509 233 550T355 601L365 521Q326 512 304 503T264 469T237 398L225 332Q211 261 129 210Q150 195 165 171T180 114Q180 98 178 90L165 24Q160 2 160 -22Q160
-48 169 -62T194 -82T241 -95L210 -173Q155 -166 118 -129T81 -28Q81 -5 85 16L98 84Q100 100 100 105Q100 162 25 173L35 255Q81 261 112 285Z" />
<glyph unicode="|" glyph-name="bar" horiz-adv-x="300" d="M190 -189H110V632H190V-189Z" />
<glyph unicode="}" glyph-name="braceright" horiz-adv-x="380" d="M299 166T268 142T230 77L215 0Q199 -82 147 -123T25 -174L15 -94Q54 -85 76 -76T116 -42T143 29L155 95Q169 166 251 217Q230 232 215 256T200 313Q200 329 202 337L215 403Q220 426 220 449Q220
475 211 489T186 509T139 522L170 600Q225 593 262 556T299 455Q299 432 295 411L282 343Q280 327 280 322Q280 265 355 254L345 172Q299 166 268 142Z" />
<glyph unicode="~" glyph-name="asciitilde" horiz-adv-x="426" d="M120 542T90 523T40 457L113 439Q124 459 132 467T155 475Q162 475 170 471T188 462Q209 450 225 444T262 437Q304 437 338 462T386 528L313 544Q311 541 304 530T289 511T269 504Q255 504 227
520Q204 531 190 536T160 542Q120 542 90 523Z" />
<glyph unicode="&#xa0;" glyph-name="uni00A0" horiz-adv-x="220" />
<glyph unicode="&#xa1;" glyph-name="exclamdown" horiz-adv-x="297" d="M193 483T205 471T217 439Q217 416 202 401T164 385Q145 385 133 397T120 429Q120 452 135 467T173 483Q193 483 205 471ZM182 336L117 -67H30L116 336H182Z" />
<glyph unicode="&#xa2;" glyph-name="cent" horiz-adv-x="421" d="M192 365T159 321T126 219Q126 176 150 151T222 126Q248 126 270 131T328 148L341 76Q279 56 225 51L206 -47H126L146 56Q90 71 60 114T29 216Q29 262 50 309T114 391T220 436L238 530H318L300
438Q331 435 351 427T400 402L359 341Q325 354 306 359T258 365Q192 365 159 321Z" />
<glyph unicode="&#xa3;" glyph-name="sterling" horiz-adv-x="500" d="M366 0L381 75H198L220 189H381L396 265H235Q247 319 258 346T289 385T344 397Q371 397 422 386L460 458Q407 477 358 477Q295 477 255 455T189 388T149 265H81L66 189H134L112 75H35L20 0H366Z" />
<glyph unicode="&#xa4;" glyph-name="currency" horiz-adv-x="490" d="M92 -2L164 65Q190 51 222 51Q265 51 301 69L363 0L429 63L366 131Q391 172 394 205L395 220Q395 253 385 279L457 344L398 412L326 345Q310 353 294 356T256 359Q227 357 189 341L127 409L62
346L125 279Q99 238 96 204L95 189Q95 157 105 131L33 65L92 -2ZM254 273T254 273Q277 273 292 258T308 217Q308 210 307 206Q304 184 287 167T248 147Q245 146 239 146Q216 146 201 161T185 201Q185 209 186 213Q187 223 194 232T213 253T225 267Q225 267 225
268T245 272Q254 273 254 273Z" />
<glyph unicode="&#xa5;" glyph-name="yen" horiz-adv-x="491" d="M164 253H75L62 183H168L160 142H54L40 72H148L136 0H214L228 72H341L355 142H242L250 183H363L376 253H281L451 466H358L228 297L165 466H77L164 253Z" />
<glyph unicode="&#xa6;" glyph-name="brokenbar" horiz-adv-x="300" d="M190 275V632H110V275H190ZM190 -188V169H110V-188H190Z" />
<glyph unicode="&#xa7;" glyph-name="section" horiz-adv-x="498" d="M232 427T249 415T301 387Q355 362 385 338T415 272Q415 246 400 221T347 179Q379 150 379 112Q379 66 344 29T211 -9Q164 -9 127 1T50 29L87 99Q161 70 198 70Q288 70 288 107Q288 120 273
130T224 155Q185 173 162 187T121 224T103 278Q103 307 118 328T178 362Q139 394 139 438Q139 484 175 517T321 550Q352 550 389 541T448 522L407 453Q377 462 356 467T307 472Q260 472 246 465T232 442Q232 427 249 415ZM196 266T213 255T270 225Q303 232 313
242T324 267Q324 280 308 290T257 316Q230 312 213 303T196 282Q196 266 213 255Z" />
<glyph unicode="&#xa8;" glyph-name="dieresis" horiz-adv-x="264" d="M20 445T7 458T-6 490Q-6 498 -5 502Q-2 519 13 531T48 544Q67 544 79 532T92 499Q92 477 77 461T39 445Q20 445 7 458ZM177 445T164 458T151 490Q151 498 152 502Q155 519 170 531T205 544Q224
544 236 532T249 499Q249 477 234 461T196 445Q177 445 164 458Z" />
<glyph unicode="&#xa9;" glyph-name="copyright" horiz-adv-x="679" d="M55 152T91 88T192 -13T340 -49Q422 -49 486 -13T587 88T624 234Q624 317 588 382T487 483T340 519Q257 519 192 483T91 382T55 234Q55 152 91 88ZM123 301T150 350T227 426T340 454Q403
454 453 427T530 350T558 237Q558 138 500 79T340 19Q276 19 227 46T151 122T123 237Q123 301 150 350ZM265 282T287 307T354 333Q371 333 386 329T415 321T435 314L457 363Q430 376 404 383T340 391Q271 391 231 350T190 236Q190 164 230 123T340 81Q379 81 406
88T457 110L435 160Q410 151 393 146T354 141Q311 141 288 166T265 236Q265 282 287 307Z" />
<glyph unicode="&#xaa;" glyph-name="ordfeminine" horiz-adv-x="280" d="M127 554T74 540V500Q117 509 140 509Q168 509 179 501T191 473Q191 460 189 452H147Q81 452 56 425T30 363Q30 338 48 321T98 304Q136 304 174 326L180 308H222L247 459Q250 473 250 486Q250
519 229 536T160 554Q127 554 74 540ZM157 348T129 348Q111 348 100 356T89 378Q89 413 139 414H184L175 361Q157 348 129 348Z" />
<glyph unicode="&#xab;" glyph-name="guillemotleft" horiz-adv-x="425" d="M110 80H189L110 235L256 404H175L29 241L110 80ZM259 80H338L259 235L405 404H324L178 241L259 80Z" />
<glyph unicode="&#xac;" glyph-name="logicalnot" horiz-adv-x="485" d="M356 56V169H45V248H440V56H356Z" />
<glyph unicode="&#xad;" glyph-name="softhyphen" horiz-adv-x="319" d="M276 180H30L43 247H289L276 180Z" />
<glyph unicode="&#xae;" glyph-name="registered" horiz-adv-x="600" d="M451 449T434 490T388 559Q360 585 320 600T236 615Q192 615 151 600T82 558Q54 530 37 490T20 405Q20 360 37 320T82 252Q109 225 150 210T236 194Q279 194 320 209T389 252Q417 279 434
319T451 405Q451 449 434 490ZM397 330T353 288T236 245Q163 245 119 287T75 405Q75 477 120 522Q163 563 236 563Q309 563 352 522Q397 477 397 405Q397 330 353 288ZM322 480T302 498T248 516H153V300H199V374H236L273 300H324L279 383Q302 394 312 409T322 448Q322
480 302 498ZM279 428T266 422T231 415H199V475H241Q279 475 279 447Q279 428 266 422Z" />
<glyph unicode="&#xaf;" glyph-name="overscore" horiz-adv-x="262" d="M-15 447H237L250 515H-2L-15 447Z" />
<glyph unicode="&#xb0;" glyph-name="degree" horiz-adv-x="265" d="M65 268T38 294T10 365Q10 407 29 439T81 490T151 508Q197 508 226 481T255 408Q255 366 235 334T181 285T111 268Q65 268 38 294ZM78 356T88 345T119 334Q154 334 171 355T188 401Q188 419
176 431T144 443Q115 443 97 424T78 378Q78 356 88 345Z" />
<glyph unicode="&#xb1;" glyph-name="plusminus" horiz-adv-x="444" d="M181 445V315H50V237H181V111H263V237H394V315H263V445H181ZM394 0V76H50V0H394Z" />
<glyph unicode="&#xb2;" glyph-name="twosuperior" horiz-adv-x="284" d="M101 515T117 520T151 526Q195 526 195 490Q195 452 157 415T53 331L30 315V276H237L249 333H149Q209 383 236 423T264 500Q264 536 239 563T171 591Q140 591 119 585T72 567L80 505Q101
515 117 520Z" />
<glyph unicode="&#xb3;" glyph-name="threesuperior" horiz-adv-x="308" d="M139 403Q192 403 192 374Q192 356 181 348T143 339Q107 339 70 356L35 297Q94 273 136 273Q203 273 232 299T261 367Q261 386 251 406T227 435Q254 454 266 473T278 522Q278 557 253
576T186 595Q145 595 92 570L102 507Q145 527 177 527Q192 527 201 521T210 502Q210 482 198 474T155 465H129L117 403H139Z" />
<glyph unicode="&#xb4;" glyph-name="acute" horiz-adv-x="244" d="M28 418L241 560L194 630L-15 473L28 418Z" />
<glyph unicode="&#xb5;" glyph-name="uni00B5" horiz-adv-x="550" d="M361 -1L355 25Q291 -9 243 -9Q209 -9 179 10L141 -174H54L163 384H253L213 179Q206 144 206 125Q206 100 217 87T257 74Q300 74 353 101L410 384H501L426 -1H361Z" />
<glyph unicode="&#xb6;" glyph-name="paragraph" horiz-adv-x="557" d="M177 586T112 544T27 404Q24 388 24 371Q24 315 65 282T177 246L133 0H226L322 508H385L289 0H380L494 586H272Q177 586 112 544Z" />
<glyph unicode="&#xb7;" glyph-name="middot" horiz-adv-x="229" d="M85 225T70 240T55 279Q55 305 75 324T121 344Q144 344 159 329T174 292Q174 288 172 278Q168 256 150 241T108 225Q85 225 70 240Z" />
<glyph unicode="&#xb8;" glyph-name="cedilla" horiz-adv-x="215" d="M-23 -141T-52 -135L-96 -124L-124 -191Q-70 -210 -27 -210Q26 -210 55 -182T84 -117Q84 -92 70 -75T19 -44L46 26H-28L-73 -90L-31 -103Q-11 -110 -4 -115T4 -128Q4 -141 -14 -141Q-23 -141
-52 -135Z" />
<glyph unicode="&#xb9;" glyph-name="onesuperior" horiz-adv-x="200" d="M15 553L29 497L89 513L45 275H115L175 586H123L15 553Z" />
<glyph unicode="&#xba;" glyph-name="ordmasculine" horiz-adv-x="302" d="M206 302T239 347T272 450Q272 495 244 525T170 555Q119 555 88 532T44 474T30 406Q30 362 59 332T134 302Q206 302 239 347ZM185 509T198 493T212 448Q212 411 194 380T141 349Q119 349
105 365T91 409Q91 446 110 477T162 509Q185 509 198 493Z" />
<glyph unicode="&#xbb;" glyph-name="guillemotright" horiz-adv-x="425" d="M166 405H87L166 250L20 81H101L247 244L166 405ZM315 405H236L315 250L169 81H250L396 244L315 405Z" />
<glyph unicode="&#xbc;" glyph-name="onequarter" horiz-adv-x="620" d="M114 0L568 550H482L25 0H114ZM57 517L71 461L131 477L87 239H157L217 550H165L57 517ZM313 117V63H449L437 0H502L514 63H568L580 123H526L562 309H486L313 117ZM480 219L459 123H395L480 219Z" />
<glyph unicode="&#xbd;" glyph-name="onehalf" horiz-adv-x="639" d="M114 0L568 550H482L25 0H114ZM57 517L71 461L131 477L87 239H157L217 550H165L57 517ZM436 239T452 244T486 250Q530 250 530 214Q530 176 492 139T388 55L365 39V0H572L584 57H484Q544 107
571 147T599 224Q599 260 574 287T506 315Q475 315 454 309T407 291L415 229Q436 239 452 244Z" />
<glyph unicode="&#xbe;" glyph-name="threequarters" horiz-adv-x="679" d="M129 358Q182 358 182 329Q182 311 171 303T133 294Q97 294 60 311L25 252Q84 228 126 228Q193 228 222 254T251 322Q251 341 241 361T217 390Q244 409 256 428T268 477Q268 512 243
531T176 550Q135 550 82 525L92 462Q135 482 167 482Q182 482 191 476T200 457Q200 437 188 429T145 420H119L107 358H129ZM173 0L627 550H541L84 0H173ZM372 117V63H508L496 0H561L573 63H627L639 123H585L621 309H545L372 117ZM539 219L518 123H454L539 219Z"
/>
<glyph unicode="&#xbf;" glyph-name="questiondown" horiz-adv-x="421" d="M324 482T337 468T351 433Q351 408 334 390T291 372Q269 372 256 386T242 421Q242 446 259 464T302 482Q324 482 337 468ZM30 -34T75 -66T188 -98Q230 -98 263 -90T345 -62L333 19Q265
-14 208 -14Q166 -14 146 2T125 43Q126 83 192 132Q231 161 252 180T295 233T326 315L329 328H237L233 309Q225 268 206 246T151 197Q144 191 130 181Q94 153 77 137T45 94T30 36Q30 -34 75 -66Z" />
<glyph unicode="&#xc0;" glyph-name="Agrave" horiz-adv-x="536" d="M-25 0H77L157 145H363L391 0H486L382 550H286L-25 0ZM208 233L317 439L350 233H208ZM235 668L283 743L487 636L447 580L235 668Z" />
<glyph unicode="&#xc1;" glyph-name="Aacute" horiz-adv-x="536" d="M-25 0H77L157 145H363L391 0H486L382 550H286L-25 0ZM208 233L317 439L350 233H208ZM460 663L231 580L201 641L426 746L460 663Z" />
<glyph unicode="&#xc2;" glyph-name="Acircumflex" horiz-adv-x="536" d="M-25 0H77L157 145H363L391 0H486L382 550H286L-25 0ZM208 233L317 439L350 233H208ZM192 652L230 595L359 677L450 594L503 642L368 766L192 652Z" />
<glyph unicode="&#xc3;" glyph-name="Atilde" horiz-adv-x="536" d="M-25 0H77L157 145H363L391 0H486L382 550H286L-25 0ZM208 233L317 439L350 233H208ZM252 718T222 699T172 633L245 615Q256 635 264 643T287 651Q294 651 302 647T320 638Q341 626 357 620T394
613Q436 613 470 638T518 704L445 720Q443 717 436 706T421 687T401 680Q387 680 359 696Q336 707 322 712T292 718Q252 718 222 699Z" />
<glyph unicode="&#xc4;" glyph-name="Adieresis" horiz-adv-x="536" d="M-25 0H77L157 145H363L391 0H486L382 550H286L-25 0ZM208 233L317 439L350 233H208ZM241 613T229 626T216 659Q216 680 232 696T271 712Q290 712 302 700T315 667Q315 645 299 629T261 613Q241
613 229 626ZM398 613T386 626T373 659Q373 680 389 696T428 712Q447 712 459 700T472 667Q472 645 456 629T418 613Q398 613 386 626Z" />
<glyph unicode="&#xc5;" glyph-name="Aring" horiz-adv-x="536" d="M363 145H157L77 0H-25L271 523Q242 550 242 588Q242 634 272 669T363 704Q399 704 423 681T448 620Q448 589 432 561T388 516L486 0H391L363 145ZM306 605T306 597Q306 562 342 562Q356 562
367 572T381 595Q382 599 382 607Q382 623 374 632T348 642Q333 642 321 632T307 609Q306 605 306 597ZM208 233H350L317 439L208 233Z" />
<glyph unicode="&#xc6;" glyph-name="AE" horiz-adv-x="800" d="M673 0L690 89H437L466 235H681L698 324H479L506 462H753L770 550H319L-25 0H71L165 145H350L322 0H673ZM412 462L367 233H220L365 462H412Z" />
<glyph unicode="&#xc7;" glyph-name="Ccedilla" horiz-adv-x="560" d="M298 469T247 435T170 348T144 240Q144 167 187 123T304 78Q367 78 456 107L472 28Q425 11 387 2T303 -9L289 -44Q326 -57 340 -74T354 -117Q354 -154 325 -182T243 -210Q200 -210 146 -191L174
-124L218 -135Q246 -141 256 -141Q274 -141 274 -128Q274 -120 267 -115T239 -103L197 -90L230 -5Q141 10 91 74T40 223Q40 310 77 386T192 508T385 555Q431 555 468 547T540 521L494 449Q462 460 434 464T371 469Q298 469 247 435Z" />
<glyph unicode="&#xc8;" glyph-name="Egrave" horiz-adv-x="518" d="M391 0L408 89H145L174 235H397L414 324H191L218 462H471L488 550H137L30 0H391ZM210 668L258 743L462 636L422 580L210 668Z" />
<glyph unicode="&#xc9;" glyph-name="Eacute" horiz-adv-x="518" d="M391 0L408 89H145L174 235H397L414 324H191L218 462H471L488 550H137L30 0H391ZM435 663L206 580L176 641L401 746L435 663Z" />
<glyph unicode="&#xca;" glyph-name="Ecircumflex" horiz-adv-x="518" d="M391 0L408 89H145L174 235H397L414 324H191L218 462H471L488 550H137L30 0H391ZM167 652L205 595L334 677L425 594L478 642L343 766L167 652Z" />
<glyph unicode="&#xcb;" glyph-name="Edieresis" horiz-adv-x="518" d="M391 0L408 89H145L174 235H397L414 324H191L218 462H471L488 550H137L30 0H391ZM216 613T204 626T191 659Q191 680 207 696T246 712Q265 712 277 700T290 667Q290 645 274 629T236 613Q216
613 204 626ZM373 613T361 626T348 659Q348 680 364 696T403 712Q422 712 434 700T447 667Q447 645 431 629T393 613Q373 613 361 626Z" />
<glyph unicode="&#xcc;" glyph-name="Igrave" horiz-adv-x="265" d="M30 0H128L235 550H137L30 0ZM87 658L135 733L339 626L299 570L87 658Z" />
<glyph unicode="&#xcd;" glyph-name="Iacute" horiz-adv-x="265" d="M30 0H128L235 550H137L30 0ZM312 653L83 570L53 631L278 736L312 653Z" />
<glyph unicode="&#xce;" glyph-name="Icircumflex" horiz-adv-x="265" d="M30 0H128L235 550H137L30 0ZM44 642L82 585L211 667L302 584L355 632L220 756L44 642Z" />
<glyph unicode="&#xcf;" glyph-name="Idieresis" horiz-adv-x="265" d="M30 0H128L235 550H137L30 0ZM93 603T81 616T68 649Q68 670 84 686T123 702Q142 702 154 690T167 657Q167 635 151 619T113 603Q93 603 81 616ZM250 603T238 616T225 649Q225 670 241 686T280
702Q299 702 311 690T324 657Q324 635 308 619T270 603Q250 603 238 616Z" />
<glyph unicode="&#xd0;" glyph-name="Eth" horiz-adv-x="622" d="M414 550T472 517T556 432T582 328Q582 159 479 80T165 0H38L84 236H30L47 325H101L145 550H324Q414 550 472 517ZM361 89T418 150T476 315Q476 385 437 423T313 462H226L199 325H367L350 236H182L153
89H220Q361 89 418 150Z" />
<glyph unicode="&#xd1;" glyph-name="Ntilde" horiz-adv-x="640" d="M30 0H128L203 419L392 0H506L610 550H514L435 132L249 550H131L30 0ZM306 718T276 699T226 633L299 615Q310 635 318 643T341 651Q348 651 356 647T374 638Q395 626 411 620T448 613Q490 613
524 638T572 704L499 720Q497 717 490 706T475 687T455 680Q441 680 413 696Q390 707 376 712T346 718Q306 718 276 699Z" />
<glyph unicode="&#xd2;" glyph-name="Ograve" horiz-adv-x="635" d="M595 236T560 160T453 37T281 -10Q201 -10 147 22T66 108T40 223Q40 310 76 385T184 508T360 555Q433 555 486 522T567 436T595 322Q595 236 560 160ZM360 78T403 113T469 200T491 305Q491 377
450 421T337 467Q275 467 232 432T166 345T144 240Q144 162 182 120T298 78Q360 78 403 113ZM262 668L310 743L514 636L474 580L262 668Z" />
<glyph unicode="&#xd3;" glyph-name="Oacute" horiz-adv-x="635" d="M595 236T560 160T453 37T281 -10Q201 -10 147 22T66 108T40 223Q40 310 76 385T184 508T360 555Q433 555 486 522T567 436T595 322Q595 236 560 160ZM360 78T403 113T469 200T491 305Q491 377
450 421T337 467Q275 467 232 432T166 345T144 240Q144 162 182 120T298 78Q360 78 403 113ZM487 663L258 580L228 641L453 746L487 663Z" />
<glyph unicode="&#xd4;" glyph-name="Ocircumflex" horiz-adv-x="635" d="M595 236T560 160T453 37T281 -10Q201 -10 147 22T66 108T40 223Q40 310 76 385T184 508T360 555Q433 555 486 522T567 436T595 322Q595 236 560 160ZM360 78T403 113T469 200T491 305Q491
377 450 421T337 467Q275 467 232 432T166 345T144 240Q144 162 182 120T298 78Q360 78 403 113ZM219 652L257 595L386 677L477 594L530 642L395 766L219 652Z" />
<glyph unicode="&#xd5;" glyph-name="Otilde" horiz-adv-x="635" d="M595 236T560 160T453 37T281 -10Q201 -10 147 22T66 108T40 223Q40 310 76 385T184 508T360 555Q433 555 486 522T567 436T595 322Q595 236 560 160ZM360 78T403 113T469 200T491 305Q491 377
450 421T337 467Q275 467 232 432T166 345T144 240Q144 162 182 120T298 78Q360 78 403 113ZM279 718T249 699T199 633L272 615Q283 635 291 643T314 651Q321 651 329 647T347 638Q368 626 384 620T421 613Q463 613 497 638T545 704L472 720Q470 717 463 706T448
687T428 680Q414 680 386 696Q363 707 349 712T319 718Q279 718 249 699Z" />
<glyph unicode="&#xd6;" glyph-name="Odieresis" horiz-adv-x="635" d="M595 236T560 160T453 37T281 -10Q201 -10 147 22T66 108T40 223Q40 310 76 385T184 508T360 555Q433 555 486 522T567 436T595 322Q595 236 560 160ZM360 78T403 113T469 200T491 305Q491
377 450 421T337 467Q275 467 232 432T166 345T144 240Q144 162 182 120T298 78Q360 78 403 113ZM268 613T256 626T243 659Q243 680 259 696T298 712Q317 712 329 700T342 667Q342 645 326 629T288 613Q268 613 256 626ZM425 613T413 626T400 659Q400 680 416 696T455
712Q474 712 486 700T499 667Q499 645 483 629T445 613Q425 613 413 626Z" />
<glyph unicode="&#xd7;" glyph-name="multiply" horiz-adv-x="446" d="M223 160L127 64L70 121L166 217L71 313L127 370L223 274L319 370L375 313L280 217L376 121L319 64L223 160Z" />
<glyph unicode="&#xd8;" glyph-name="Oslash" horiz-adv-x="679" d="M618 378T618 322Q618 236 583 160T476 37T304 -10Q191 -10 128 55L40 -16L-12 56L80 129Q63 171 63 223Q63 310 99 385T207 508T383 555Q478 555 542 498L637 574L691 506L594 428Q618 378
618 322ZM167 219T170 201L460 433Q420 467 360 467Q298 467 255 432T189 345T167 240Q167 219 170 201ZM514 330T507 358L207 118Q245 78 321 78Q383 78 426 113T492 200T514 305Q514 330 507 358Z" />
<glyph unicode="&#xd9;" glyph-name="Ugrave" horiz-adv-x="594" d="M205 668L253 743L457 636L417 580L205 668ZM344 -9T399 26T472 103T501 202L569 550H471L403 201Q391 140 355 111T244 82Q189 82 167 103T145 164Q145 187 149 207L216 550H119L52 206Q47
183 47 155Q47 87 89 39T239 -9Q344 -9 399 26Z" />
<glyph unicode="&#xda;" glyph-name="Uacute" horiz-adv-x="594" d="M520 663L291 580L261 641L486 746L520 663ZM344 -9T399 26T472 103T501 202L569 550H471L403 201Q391 140 355 111T244 82Q189 82 167 103T145 164Q145 187 149 207L216 550H119L52 206Q47
183 47 155Q47 87 89 39T239 -9Q344 -9 399 26Z" />
<glyph unicode="&#xdb;" glyph-name="Ucircumflex" horiz-adv-x="594" d="M344 -9T399 26T472 103T501 202L569 550H471L403 201Q391 140 355 111T244 82Q189 82 167 103T145 164Q145 187 149 207L216 550H119L52 206Q47 183 47 155Q47 87 89 39T239 -9Q344 -9
399 26ZM203 652L241 595L370 677L461 594L514 642L379 766L203 652Z" />
<glyph unicode="&#xdc;" glyph-name="Udieresis" horiz-adv-x="594" d="M344 -9T399 26T472 103T501 202L569 550H471L403 201Q391 140 355 111T244 82Q189 82 167 103T145 164Q145 187 149 207L216 550H119L52 206Q47 183 47 155Q47 87 89 39T239 -9Q344 -9 399
26ZM252 613T240 626T227 659Q227 680 243 696T282 712Q301 712 313 700T326 667Q326 645 310 629T272 613Q252 613 240 626ZM409 613T397 626T384 659Q384 680 400 696T439 712Q458 712 470 700T483 667Q483 645 467 629T429 613Q409 613 397 626Z" />
<glyph unicode="&#xdd;" glyph-name="Yacute" horiz-adv-x="518" d="M436 663L207 580L177 641L402 746L436 663ZM190 249L143 0H241L287 242L553 550H445L255 337L155 550H55L190 249Z" />
<glyph unicode="&#xde;" glyph-name="Thorn" horiz-adv-x="553" d="M235 550H137L30 0H128L149 105H222Q367 105 444 146T522 298Q522 383 463 416T293 449H215L235 550ZM275 360Q320 360 348 357T396 339T416 293Q416 251 400 230T350 202T250 194H166L198 360H275Z" />
<glyph unicode="&#xdf;" glyph-name="germandbls" horiz-adv-x="522" d="M232 554T180 512T110 377L37 0H132L207 383Q217 432 243 448T292 465Q327 465 344 453T361 419Q361 398 345 383T294 349Q254 326 234 306T213 255Q213 225 237 208T308 172Q350 155 369
142T385 105Q381 88 366 81T314 73Q286 73 261 76T193 90L155 13Q232 -10 303 -10Q372 -10 413 11T470 61T487 117Q487 159 459 181T382 224Q352 237 339 245T326 265Q326 275 337 284T370 307Q414 335 438 362T463 432Q463 461 447 489T398 535T318 554Q232 554
180 512Z" />
<glyph unicode="&#xe0;" glyph-name="agrave" horiz-adv-x="420" d="M210 390T170 382T98 364L95 300Q165 318 211 318Q255 318 273 305T292 262Q292 255 288 229H215Q118 229 74 189T29 87Q29 47 59 19T142 -9Q205 -9 262 31L266 0H343L381 228Q386 256 386 277Q386
331 354 360T244 390Q210 390 170 382ZM245 71T228 67T182 63Q155 63 141 75T126 108Q126 135 145 151T208 167H280L267 81Q245 71 228 67ZM325 418L375 463L229 630L163 570L325 418Z" />
<glyph unicode="&#xe1;" glyph-name="aacute" horiz-adv-x="420" d="M210 390T170 382T98 364L95 300Q165 318 211 318Q255 318 273 305T292 262Q292 255 288 229H215Q118 229 74 189T29 87Q29 47 59 19T142 -9Q205 -9 262 31L266 0H343L381 228Q386 256 386 277Q386
331 354 360T244 390Q210 390 170 382ZM245 71T228 67T182 63Q155 63 141 75T126 108Q126 135 145 151T208 167H280L267 81Q245 71 228 67ZM169 418L382 560L335 630L126 473L169 418Z" />
<glyph unicode="&#xe2;" glyph-name="acircumflex" horiz-adv-x="420" d="M210 390T170 382T98 364L95 300Q165 318 211 318Q255 318 273 305T292 262Q292 255 288 229H215Q118 229 74 189T29 87Q29 47 59 19T142 -9Q205 -9 262 31L266 0H343L381 228Q386 256
386 277Q386 331 354 360T244 390Q210 390 170 382ZM245 71T228 67T182 63Q155 63 141 75T126 108Q126 135 145 151T208 167H280L267 81Q245 71 228 67ZM354 428L408 472L289 636L122 484L164 430L278 530L354 428Z" />
<glyph unicode="&#xe3;" glyph-name="atilde" horiz-adv-x="420" d="M210 390T170 382T98 364L95 300Q165 318 211 318Q255 318 273 305T292 262Q292 255 288 229H215Q118 229 74 189T29 87Q29 47 59 19T142 -9Q205 -9 262 31L266 0H343L381 228Q386 256 386 277Q386
331 354 360T244 390Q210 390 170 382ZM245 71T228 67T182 63Q155 63 141 75T126 108Q126 135 145 151T208 167H280L267 81Q245 71 228 67ZM152 542T122 523T72 457L145 439Q156 459 164 467T187 475Q194 475 202 471T220 462Q241 450 257 444T294 437Q336 437
370 462T418 528L345 544Q343 541 336 530T321 511T301 504Q287 504 259 520Q236 531 222 536T192 542Q152 542 122 523Z" />
<glyph unicode="&#xe4;" glyph-name="adieresis" horiz-adv-x="420" d="M210 390T170 382T98 364L95 300Q165 318 211 318Q255 318 273 305T292 262Q292 255 288 229H215Q118 229 74 189T29 87Q29 47 59 19T142 -9Q205 -9 262 31L266 0H343L381 228Q386 256 386
277Q386 331 354 360T244 390Q210 390 170 382ZM245 71T228 67T182 63Q155 63 141 75T126 108Q126 135 145 151T208 167H280L267 81Q245 71 228 67ZM151 445T138 458T125 490Q125 498 126 502Q129 519 144 531T179 544Q198 544 210 532T223 499Q223 477 208 461T170
445Q151 445 138 458ZM308 445T295 458T282 490Q282 498 283 502Q286 519 301 531T336 544Q355 544 367 532T380 499Q380 477 365 461T327 445Q308 445 295 458Z" />
<glyph unicode="&#xe5;" glyph-name="aring" horiz-adv-x="420" d="M210 390T170 382T98 364L95 300Q165 318 211 318Q255 318 273 305T292 262Q292 255 288 229H215Q118 229 74 189T29 87Q29 47 59 19T142 -9Q205 -9 262 31L266 0H343L381 228Q386 256 386 277Q386
331 354 360T244 390Q210 390 170 382ZM245 71T228 67T182 63Q155 63 141 75T126 108Q126 135 145 151T208 167H280L267 81Q245 71 228 67ZM373 579T349 602T288 625Q227 625 197 589T166 502Q166 467 191 444T252 420Q310 420 341 456T373 541Q373 579 349 602ZM290
563T298 554T307 528Q307 520 306 516Q304 503 293 493T267 483Q231 483 231 518Q231 526 232 530Q234 543 246 553T273 563Q290 563 298 554Z" />
<glyph unicode="&#xe6;" glyph-name="ae" horiz-adv-x="653" d="M548 390T586 352T624 246Q624 217 619 193L611 153L365 156Q364 150 364 138Q364 98 388 82T462 66Q522 66 568 77V14Q492 -10 424 -10Q382 -10 359 3T314 43Q283 22 237 7T142 -9Q90 -9 60 19T29
87Q29 148 73 188T215 229H288Q292 255 292 262Q292 292 274 305T211 318Q165 318 95 300L98 364Q129 373 169 381T244 390Q289 390 314 380T355 348Q408 390 477 390Q548 390 586 352ZM536 232T536 244Q536 278 516 296T464 315Q433 315 409 290T372 217H533Q536
232 536 244ZM210 63T227 67T267 81L279 164L280 167H208Q165 167 146 151T126 108Q126 87 140 75T182 63Q210 63 227 67Z" />
<glyph unicode="&#xe7;" glyph-name="ccedilla" horiz-adv-x="405" d="M222 315T191 292T146 235T132 166Q132 121 158 94T231 66Q257 66 279 71T337 88L351 21Q314 8 283 0T212 -9L199 -44Q236 -57 250 -74T264 -117Q264 -154 235 -182T153 -210Q110 -210 56
-191L84 -124L128 -135Q156 -141 166 -141Q184 -141 184 -128Q184 -120 177 -115T149 -103L107 -90L140 -4Q88 10 59 52T29 151Q29 207 54 262T135 353T278 390Q347 390 405 361L363 298Q339 307 318 311T269 315Q222 315 191 292Z" />
<glyph unicode="&#xe8;" glyph-name="egrave" horiz-adv-x="424" d="M185 390T135 356T58 266T30 146Q30 79 72 35T195 -10Q263 -10 339 14V77Q293 66 233 66Q181 66 153 83T125 141Q125 151 126 156L382 153L390 193Q395 217 395 246Q395 314 357 352T248 390Q185
390 135 356ZM267 315T287 297T307 244Q307 232 304 217H133Q144 263 173 289T235 315Q267 315 287 297ZM329 418L379 463L233 630L167 570L329 418Z" />
<glyph unicode="&#xe9;" glyph-name="eacute" horiz-adv-x="424" d="M185 390T135 356T58 266T30 146Q30 79 72 35T195 -10Q263 -10 339 14V77Q293 66 233 66Q181 66 153 83T125 141Q125 151 126 156L382 153L390 193Q395 217 395 246Q395 314 357 352T248 390Q185
390 135 356ZM267 315T287 297T307 244Q307 232 304 217H133Q144 263 173 289T235 315Q267 315 287 297ZM173 418L386 560L339 630L130 473L173 418Z" />
<glyph unicode="&#xea;" glyph-name="ecircumflex" horiz-adv-x="424" d="M185 390T135 356T58 266T30 146Q30 79 72 35T195 -10Q263 -10 339 14V77Q293 66 233 66Q181 66 153 83T125 141Q125 151 126 156L382 153L390 193Q395 217 395 246Q395 314 357 352T248
390Q185 390 135 356ZM267 315T287 297T307 244Q307 232 304 217H133Q144 263 173 289T235 315Q267 315 287 297ZM358 428L412 472L293 636L126 484L168 430L282 530L358 428Z" />
<glyph unicode="&#xeb;" glyph-name="edieresis" horiz-adv-x="424" d="M185 390T135 356T58 266T30 146Q30 79 72 35T195 -10Q263 -10 339 14V77Q293 66 233 66Q181 66 153 83T125 141Q125 151 126 156L382 153L390 193Q395 217 395 246Q395 314 357 352T248
390Q185 390 135 356ZM267 315T287 297T307 244Q307 232 304 217H133Q144 263 173 289T235 315Q267 315 287 297ZM155 445T142 458T129 490Q129 498 130 502Q133 519 148 531T183 544Q202 544 214 532T227 499Q227 477 212 461T174 445Q155 445 142 458ZM312 445T299
458T286 490Q286 498 287 502Q290 519 305 531T340 544Q359 544 371 532T384 499Q384 477 369 461T331 445Q312 445 299 458Z" />
<glyph unicode="&#xec;" glyph-name="igrave" horiz-adv-x="231" d="M30 0H126L201 384H105L30 0ZM235 418L285 463L139 630L73 570L235 418Z" />
<glyph unicode="&#xed;" glyph-name="iacute" horiz-adv-x="231" d="M30 0H126L201 384H105L30 0ZM79 418L292 560L245 630L36 473L79 418Z" />
<glyph unicode="&#xee;" glyph-name="icircumflex" horiz-adv-x="231" d="M30 0H126L201 384H105L30 0ZM264 428L318 472L199 636L32 484L74 430L188 530L264 428Z" />
<glyph unicode="&#xef;" glyph-name="idieresis" horiz-adv-x="231" d="M30 0H126L201 384H105L30 0ZM61 445T48 458T35 490Q35 498 36 502Q39 519 54 531T89 544Q108 544 120 532T133 499Q133 477 118 461T80 445Q61 445 48 458ZM218 445T205 458T192 490Q192
498 193 502Q196 519 211 531T246 544Q265 544 277 532T290 499Q290 477 275 461T237 445Q218 445 205 458Z" />
<glyph unicode="&#xf0;" glyph-name="eth" horiz-adv-x="459" d="M416 423T427 381T438 292Q438 214 410 145T326 34T192 -9Q114 -9 72 34T30 150Q30 205 56 255T133 336T258 367Q278 367 297 363T344 351Q343 393 325 423L238 392L224 452L281 473Q266 485 246
494T221 506L266 566Q296 549 315 536T357 502L451 539L464 477L398 451Q416 423 427 381ZM250 67T292 113T346 277Q300 295 266 295Q194 295 157 255T120 158Q120 119 141 93T197 67Q250 67 292 113Z" />
<glyph unicode="&#xf1;" glyph-name="ntilde" horiz-adv-x="478" d="M334 309T334 252Q334 244 332 228L288 0H384L425 211Q432 250 432 277Q432 328 406 358T313 389Q282 389 256 382T210 366T183 355L175 384H106L30 0H126L179 289Q234 309 272 309Q334 309
334 252ZM197 542T167 523T117 457L190 439Q201 459 209 467T232 475Q239 475 247 471T265 462Q286 450 302 444T339 437Q381 437 415 462T463 528L390 544Q388 541 381 530T366 511T346 504Q332 504 304 520Q281 531 267 536T237 542Q197 542 167 523Z" />
<glyph unicode="&#xf2;" glyph-name="ograve" horiz-adv-x="462" d="M275 -9T328 26T407 114T432 222Q432 268 412 306T353 367T265 390Q185 390 132 355T55 268T30 159Q30 114 50 76T109 14T196 -9Q275 -9 328 26ZM286 315T309 291T332 220Q332 158 301 113T211
67Q174 67 152 91T129 161Q129 199 143 234T185 292T249 315Q286 315 309 291ZM345 418L395 463L249 630L183 570L345 418Z" />
<glyph unicode="&#xf3;" glyph-name="oacute" horiz-adv-x="462" d="M275 -9T328 26T407 114T432 222Q432 268 412 306T353 367T265 390Q185 390 132 355T55 268T30 159Q30 114 50 76T109 14T196 -9Q275 -9 328 26ZM286 315T309 291T332 220Q332 158 301 113T211
67Q174 67 152 91T129 161Q129 199 143 234T185 292T249 315Q286 315 309 291ZM189 418L402 560L355 630L146 473L189 418Z" />
<glyph unicode="&#xf4;" glyph-name="ocircumflex" horiz-adv-x="462" d="M275 -9T328 26T407 114T432 222Q432 268 412 306T353 367T265 390Q185 390 132 355T55 268T30 159Q30 114 50 76T109 14T196 -9Q275 -9 328 26ZM286 315T309 291T332 220Q332 158 301
113T211 67Q174 67 152 91T129 161Q129 199 143 234T185 292T249 315Q286 315 309 291ZM374 428L428 472L309 636L142 484L184 430L298 530L374 428Z" />
<glyph unicode="&#xf5;" glyph-name="otilde" horiz-adv-x="462" d="M275 -9T328 26T407 114T432 222Q432 268 412 306T353 367T265 390Q185 390 132 355T55 268T30 159Q30 114 50 76T109 14T196 -9Q275 -9 328 26ZM286 315T309 291T332 220Q332 158 301 113T211
67Q174 67 152 91T129 161Q129 199 143 234T185 292T249 315Q286 315 309 291ZM172 542T142 523T92 457L165 439Q176 459 184 467T207 475Q214 475 222 471T240 462Q261 450 277 444T314 437Q356 437 390 462T438 528L365 544Q363 541 356 530T341 511T321 504Q307
504 279 520Q256 531 242 536T212 542Q172 542 142 523Z" />
<glyph unicode="&#xf6;" glyph-name="odieresis" horiz-adv-x="462" d="M275 -9T328 26T407 114T432 222Q432 268 412 306T353 367T265 390Q185 390 132 355T55 268T30 159Q30 114 50 76T109 14T196 -9Q275 -9 328 26ZM286 315T309 291T332 220Q332 158 301 113T211
67Q174 67 152 91T129 161Q129 199 143 234T185 292T249 315Q286 315 309 291ZM171 445T158 458T145 490Q145 498 146 502Q149 519 164 531T199 544Q218 544 230 532T243 499Q243 477 228 461T190 445Q171 445 158 458ZM328 445T315 458T302 490Q302 498 303 502Q306
519 321 531T356 544Q375 544 387 532T400 499Q400 477 385 461T347 445Q328 445 315 458Z" />
<glyph unicode="&#xf7;" glyph-name="divide" horiz-adv-x="484" d="M221 315T205 331T189 370Q189 393 205 408T244 424Q267 424 282 409T298 370Q298 347 283 331T244 315Q221 315 205 331ZM434 187V267H50V187H434ZM221 30T205 46T189 85Q189 108 205 123T244
139Q267 139 282 124T298 85Q298 62 283 46T244 30Q221 30 205 46Z" />
<glyph unicode="&#xf8;" glyph-name="oslash" horiz-adv-x="517" d="M460 264T460 222Q460 168 435 115T357 26T224 -9Q163 -9 119 27L63 -21L22 29L78 77Q58 115 58 159Q58 215 82 267T160 355T293 390Q358 390 401 353L457 401L498 347L443 300Q460 264 460
222ZM158 145L333 295Q310 315 277 315Q241 315 214 293T172 235T157 161L158 145ZM359 230L187 84Q209 67 239 67Q297 67 328 112T360 220L359 230Z" />
<glyph unicode="&#xf9;" glyph-name="ugrave" horiz-adv-x="468" d="M363 -1L438 384H344L289 94Q248 73 204 73Q142 73 142 129Q142 143 145 155L190 384H95L57 189Q56 185 52 159T47 105Q47 -9 153 -9Q188 -9 218 0T288 28L296 -1H363ZM349 418L399 463L253
630L187 570L349 418Z" />
<glyph unicode="&#xfa;" glyph-name="uacute" horiz-adv-x="468" d="M363 -1L438 384H344L289 94Q248 73 204 73Q142 73 142 129Q142 143 145 155L190 384H95L57 189Q56 185 52 159T47 105Q47 -9 153 -9Q188 -9 218 0T288 28L296 -1H363ZM193 418L406 560L359
630L150 473L193 418Z" />
<glyph unicode="&#xfb;" glyph-name="ucircumflex" horiz-adv-x="468" d="M363 -1L438 384H344L289 94Q248 73 204 73Q142 73 142 129Q142 143 145 155L190 384H95L57 189Q56 185 52 159T47 105Q47 -9 153 -9Q188 -9 218 0T288 28L296 -1H363ZM378 428L432 472L313
636L146 484L188 430L302 530L378 428Z" />
<glyph unicode="&#xfc;" glyph-name="udieresis" horiz-adv-x="468" d="M363 -1L438 384H344L289 94Q248 73 204 73Q142 73 142 129Q142 143 145 155L190 384H95L57 189Q56 185 52 159T47 105Q47 -9 153 -9Q188 -9 218 0T288 28L296 -1H363ZM175 445T162 458T149
490Q149 498 150 502Q153 519 168 531T203 544Q222 544 234 532T247 499Q247 477 232 461T194 445Q175 445 162 458ZM332 445T319 458T306 490Q306 498 307 502Q310 519 325 531T360 544Q379 544 391 532T404 499Q404 477 389 461T351 445Q332 445 319 458Z" />
<glyph unicode="&#xfd;" glyph-name="yacute" horiz-adv-x="444" d="M126 -11L12 -206H104L454 384H354L189 89L131 384H40L126 -11ZM155 418L368 560L321 630L112 473L155 418Z" />
<glyph unicode="&#xfe;" glyph-name="thorn" horiz-adv-x="475" d="M-10 -206H84L124 10Q164 -9 211 -9Q295 -9 347 27T422 119T445 231Q445 299 404 344T293 390Q260 390 242 385T198 368L231 550H136L-10 -206ZM209 317T252 317Q292 317 319 289T346 214Q346
151 311 109T209 66Q188 66 174 70T144 83L181 300Q209 317 252 317Z" />
<glyph unicode="&#xff;" glyph-name="ydieresis" horiz-adv-x="444" d="M126 -11L12 -206H104L454 384H354L189 89L131 384H40L126 -11ZM137 445T124 458T111 490Q111 498 112 502Q115 519 130 531T165 544Q184 544 196 532T209 499Q209 477 194 461T156 445Q137
445 124 458ZM294 445T281 458T268 490Q268 498 269 502Q272 519 287 531T322 544Q341 544 353 532T366 499Q366 477 351 461T313 445Q294 445 281 458Z" />
<glyph unicode="&#x2013;" glyph-name="endash" horiz-adv-x="429" d="M366 180H30L43 247H379L366 180Z" />
<glyph unicode="&#x2014;" glyph-name="emdash" horiz-adv-x="639" d="M576 180H30L43 247H589L576 180Z" />
<glyph unicode="&#x2018;" glyph-name="quoteleft" horiz-adv-x="229" d="M124 466T130 455T137 429Q137 405 121 390T77 374Q54 374 42 387T30 422Q30 427 32 439Q37 467 65 495T139 558L169 534Q128 493 113 472Q124 466 130 455Z" />
<glyph unicode="&#x2019;" glyph-name="quoteright" horiz-adv-x="229" d="M174 556T186 543T199 508Q199 503 197 491Q191 463 162 434T89 372L60 396Q101 437 115 458Q104 464 98 475T91 501Q91 508 92 511Q97 532 112 544T151 556Q174 556 186 543Z" />
<glyph unicode="&#x201a;" glyph-name="quotesinglbase" horiz-adv-x="233" d="M125 -8Q110 -3 101 10T91 42Q91 68 110 85T154 103Q177 103 190 88T203 46Q203 39 201 23Q194 -12 166 -43T91 -116L60 -93L125 -8Z" />
<glyph unicode="&#x201c;" glyph-name="quotedblleft" horiz-adv-x="364" d="M124 466T130 455T137 429Q137 405 121 390T77 374Q54 374 42 387T30 422Q30 427 32 439Q37 467 65 495T139 558L169 534Q128 493 113 472Q124 466 130 455ZM259 466T265 455T272 429Q272
405 256 390T212 374Q189 374 177 387T165 422Q165 427 167 439Q172 467 200 495T274 558L304 534Q263 493 248 472Q259 466 265 455Z" />
<glyph unicode="&#x201d;" glyph-name="quotedblright" horiz-adv-x="364" d="M174 556T186 543T199 508Q199 503 197 491Q191 463 162 434T89 372L60 396Q101 437 115 458Q104 464 98 475T91 501Q91 508 92 511Q97 532 112 544T151 556Q174 556 186 543ZM309
556T321 543T334 508Q334 503 332 491Q326 463 297 434T224 372L195 396Q236 437 250 458Q239 464 233 475T226 501Q226 508 227 511Q232 532 247 544T286 556Q309 556 321 543Z" />
<glyph unicode="&#x201e;" glyph-name="quotedblbase" horiz-adv-x="364" d="M174 103T186 90T199 55Q199 50 197 38Q191 10 162 -19T89 -81L60 -57Q101 -16 115 5Q104 11 98 22T91 48Q91 55 92 58Q97 79 112 91T151 103Q174 103 186 90ZM309 103T321 90T334 55Q334
50 332 38Q326 10 297 -19T224 -81L195 -57Q236 -16 250 5Q239 11 233 22T226 48Q226 55 227 58Q232 79 247 91T286 103Q309 103 321 90Z" />
<glyph unicode="&#x2022;" glyph-name="bullet" horiz-adv-x="542" d="M290 135T328 159T386 223T407 304Q407 345 378 372T302 400Q251 400 213 376T155 313T135 235Q135 192 164 164T240 135Q290 135 328 159Z" />
<glyph unicode="&#x2039;" glyph-name="guilsinglleft" horiz-adv-x="276" d="M110 80H189L110 235L256 404H175L29 241L110 80Z" />
<glyph unicode="&#x203a;" glyph-name="guilsinglright" horiz-adv-x="276" d="M166 405H87L166 250L20 81H101L247 244L166 405Z" />
</font>
</defs>
</svg>
